  0
SECTION
  2
HEADER
  9
$ACADVER
  1
AC1015
  9
$ACADMAINTVER
 70
     6
  9
$DWGCODEPAGE
  3
ANSI_1252
  9
$INSBASE
 10
0.0
 20
0.0
 30
0.0
  9
$EXTMIN
 10
0.0
 20
0.0
 30
0.0
  9
$EXTMAX
 10
296.9999999999999
 20
210.0
 30
0.0
  9
$LIMMIN
 10
0.0
 20
0.0
  9
$LIMMAX
 10
12.0
 20
9.0
  9
$ORTHOMODE
 70
     0
  9
$REGENMODE
 70
     1
  9
$FILLMODE
 70
     1
  9
$QTEXTMODE
 70
     0
  9
$MIRRTEXT
 70
     1
  9
$LTSCALE
 40
1.0
  9
$ATTMODE
 70
     1
  9
$TEXTSIZE
 40
0.2
  9
$TRACEWID
 40
0.05
  9
$TEXTSTYLE
  7
Standard
  9
$CLAYER
  8
0
  9
$CELTYPE
  6
ByLayer
  9
$CECOLOR
 62
   256
  9
$CELTSCALE
 40
1.0
  9
$DISPSILH
 70
     0
  9
$DIMSCALE
 40
1.0
  9
$DIMASZ
 40
0.18
  9
$DIMEXO
 40
0.0625
  9
$DIMDLI
 40
0.38
  9
$DIMRND
 40
0.0
  9
$DIMDLE
 40
0.0
  9
$DIMEXE
 40
0.18
  9
$DIMTP
 40
0.0
  9
$DIMTM
 40
0.0
  9
$DIMTXT
 40
0.18
  9
$DIMCEN
 40
0.09
  9
$DIMTSZ
 40
0.0
  9
$DIMTOL
 70
     0
  9
$DIMLIM
 70
     0
  9
$DIMTIH
 70
     1
  9
$DIMTOH
 70
     1
  9
$DIMSE1
 70
     0
  9
$DIMSE2
 70
     0
  9
$DIMTAD
 70
     0
  9
$DIMZIN
 70
     0
  9
$DIMBLK
  1

  9
$DIMASO
 70
     1
  9
$DIMSHO
 70
     1
  9
$DIMPOST
  1

  9
$DIMAPOST
  1

  9
$DIMALT
 70
     0
  9
$DIMALTD
 70
     2
  9
$DIMALTF
 40
25.4
  9
$DIMLFAC
 40
1.0
  9
$DIMTOFL
 70
     0
  9
$DIMTVP
 40
0.0
  9
$DIMTIX
 70
     0
  9
$DIMSOXD
 70
     0
  9
$DIMSAH
 70
     0
  9
$DIMBLK1
  1

  9
$DIMBLK2
  1

  9
$DIMSTYLE
  2
Standard
  9
$DIMCLRD
 70
     0
  9
$DIMCLRE
 70
     0
  9
$DIMCLRT
 70
     0
  9
$DIMTFAC
 40
1.0
  9
$DIMGAP
 40
0.09
  9
$DIMJUST
 70
     0
  9
$DIMSD1
 70
     0
  9
$DIMSD2
 70
     0
  9
$DIMTOLJ
 70
     1
  9
$DIMTZIN
 70
     0
  9
$DIMALTZ
 70
     0
  9
$DIMALTTZ
 70
     0
  9
$DIMUPT
 70
     0
  9
$DIMDEC
 70
     4
  9
$DIMTDEC
 70
     4
  9
$DIMALTU
 70
     2
  9
$DIMALTTD
 70
     2
  9
$DIMTXSTY
  7
Standard
  9
$DIMAUNIT
 70
     0
  9
$DIMADEC
 70
     0
  9
$DIMALTRND
 40
0.0
  9
$DIMAZIN
 70
     0
  9
$DIMDSEP
 70
    46
  9
$DIMATFIT
 70
     3
  9
$DIMFRAC
 70
     0
  9
$DIMLDRBLK
  1

  9
$DIMLUNIT
 70
     2
  9
$DIMLWD
 70
    -2
  9
$DIMLWE
 70
    -2
  9
$DIMTMOVE
 70
     0
  9
$LUNITS
 70
     2
  9
$LUPREC
 70
     4
  9
$SKETCHINC
 40
0.1
  9
$FILLETRAD
 40
0.5
  9
$AUNITS
 70
     0
  9
$AUPREC
 70
     0
  9
$MENU
  1
.
  9
$ELEVATION
 40
0.0
  9
$PELEVATION
 40
0.0
  9
$THICKNESS
 40
0.0
  9
$LIMCHECK
 70
     0
  9
$CHAMFERA
 40
0.5
  9
$CHAMFERB
 40
0.5
  9
$CHAMFERC
 40
1.0
  9
$CHAMFERD
 40
0.0
  9
$SKPOLY
 70
     0
  9
$TDCREATE
 40
2456997.616608403
  9
$TDUCREATE
 40
2456997.574941736
  9
$TDUPDATE
 40
2456997.616608773
  9
$TDUUPDATE
 40
2456997.574942106
  9
$TDINDWG
 40
0.0000000116
  9
$TDUSRTIMER
 40
0.0000000116
  9
$USRTIMER
 70
     1
  9
$ANGBASE
 50
0.0
  9
$ANGDIR
 70
     0
  9
$PDMODE
 70
     0
  9
$PDSIZE
 40
0.0
  9
$PLINEWID
 40
0.0
  9
$SPLFRAME
 70
     0
  9
$SPLINETYPE
 70
     6
  9
$SPLINESEGS
 70
     8
  9
$HANDSEED
  5
5BD
  9
$SURFTAB1
 70
     6
  9
$SURFTAB2
 70
     6
  9
$SURFTYPE
 70
     6
  9
$SURFU
 70
     6
  9
$SURFV
 70
     6
  9
$UCSBASE
  2

  9
$UCSNAME
  2

  9
$UCSORG
 10
0.0
 20
0.0
 30
0.0
  9
$UCSXDIR
 10
1.0
 20
0.0
 30
0.0
  9
$UCSYDIR
 10
0.0
 20
1.0
 30
0.0
  9
$UCSORTHOREF
  2

  9
$UCSORTHOVIEW
 70
     0
  9
$UCSORGTOP
 10
0.0
 20
0.0
 30
0.0
  9
$UCSORGBOTTOM
 10
0.0
 20
0.0
 30
0.0
  9
$UCSORGLEFT
 10
0.0
 20
0.0
 30
0.0
  9
$UCSORGRIGHT
 10
0.0
 20
0.0
 30
0.0
  9
$UCSORGFRONT
 10
0.0
 20
0.0
 30
0.0
  9
$UCSORGBACK
 10
0.0
 20
0.0
 30
0.0
  9
$PUCSBASE
  2

  9
$PUCSNAME
  2

  9
$PUCSORG
 10
0.0
 20
0.0
 30
0.0
  9
$PUCSXDIR
 10
1.0
 20
0.0
 30
0.0
  9
$PUCSYDIR
 10
0.0
 20
1.0
 30
0.0
  9
$PUCSORTHOREF
  2

  9
$PUCSORTHOVIEW
 70
     0
  9
$PUCSORGTOP
 10
0.0
 20
0.0
 30
0.0
  9
$PUCSORGBOTTOM
 10
0.0
 20
0.0
 30
0.0
  9
$PUCSORGLEFT
 10
0.0
 20
0.0
 30
0.0
  9
$PUCSORGRIGHT
 10
0.0
 20
0.0
 30
0.0
  9
$PUCSORGFRONT
 10
0.0
 20
0.0
 30
0.0
  9
$PUCSORGBACK
 10
0.0
 20
0.0
 30
0.0
  9
$USERI1
 70
     0
  9
$USERI2
 70
     0
  9
$USERI3
 70
     0
  9
$USERI4
 70
     0
  9
$USERI5
 70
     0
  9
$USERR1
 40
18.1
  9
$USERR2
 40
0.0
  9
$USERR3
 40
0.0
  9
$USERR4
 40
0.0
  9
$USERR5
 40
0.0
  9
$WORLDVIEW
 70
     1
  9
$SHADEDGE
 70
     3
  9
$SHADEDIF
 70
    70
  9
$TILEMODE
 70
     1
  9
$MAXACTVP
 70
    64
  9
$PINSBASE
 10
0.0
 20
0.0
 30
0.0
  9
$PLIMCHECK
 70
     0
  9
$PEXTMIN
 10
1.00000000000000E+20
 20
1.00000000000000E+20
 30
1.00000000000000E+20
  9
$PEXTMAX
 10
-1.00000000000000E+20
 20
-1.00000000000000E+20
 30
-1.00000000000000E+20
  9
$PLIMMIN
 10
0.0
 20
0.0
  9
$PLIMMAX
 10
12.0
 20
9.0
  9
$UNITMODE
 70
     0
  9
$VISRETAIN
 70
     1
  9
$PLINEGEN
 70
     0
  9
$PSLTSCALE
 70
     1
  9
$TREEDEPTH
 70
  3020
  9
$CMLSTYLE
  2
Standard
  9
$CMLJUST
 70
     0
  9
$CMLSCALE
 40
1.0
  9
$PROXYGRAPHICS
 70
     1
  9
$MEASUREMENT
 70
     1
  9
$CELWEIGHT
370
    -1
  9
$ENDCAPS
280
     0
  9
$JOINSTYLE
280
     0
  9
$LWDISPLAY
290
     0
  9
$INSUNITS
 70
     4
  9
$HYPERLINKBASE
  1

  9
$STYLESHEET
  1

  9
$XEDIT
290
     1
  9
$CEPSNTYPE
380
     0
  9
$PSTYLEMODE
290
     1
  9
$FINGERPRINTGUID
  2
{CF7F9754-326A-42AC-BB0F-D0FC1D76E600}
  9
$VERSIONGUID
  2
{FAEB1C32-E019-11D5-929B-00C0DF256EC4}
  9
$EXTNAMES
290
     1
  9
$PSVPSCALE
 40
0.0
  9
$OLESTARTUP
290
     0
  0
ENDSEC
  0
SECTION
  2
CLASSES
  0
CLASS
  1
ACDBDICTIONARYWDFLT
  2
AcDbDictionaryWithDefault
  3
ObjectDBX Classes
 90
        0
280
     0
281
     0
  0
CLASS
  1
VISUALSTYLE
  2
AcDbVisualStyle
  3
ObjectDBX Classes
 90
     4095
280
     0
281
     0
  0
CLASS
  1
MATERIAL
  2
AcDbMaterial
  3
ObjectDBX Classes
 90
     1153
280
     0
281
     0
  0
CLASS
  1
DICTIONARYVAR
  2
AcDbDictionaryVar
  3
ObjectDBX Classes
 90
        0
280
     0
281
     0
  0
CLASS
  1
ACDBPLACEHOLDER
  2
AcDbPlaceHolder
  3
ObjectDBX Classes
 90
        0
280
     0
281
     0
  0
CLASS
  1
LAYOUT
  2
AcDbLayout
  3
ObjectDBX Classes
 90
        0
280
     0
281
     0
  0
ENDSEC
  0
SECTION
  2
TABLES
  0
TABLE
  2
VPORT
  5
8
330
0
100
AcDbSymbolTable
 70
     1
  0
VPORT
  5
29
330
8
100
AcDbSymbolTableRecord
100
AcDbViewportTableRecord
  2
*Active
 70
     0
 10
0.0
 20
0.0
 11
1.0
 21
1.0
 12
148.4999999999999
 22
105.0
 13
0.0
 23
0.0
 14
0.5
 24
0.5
 15
0.5
 25
0.5
 16
0.0
 26
0.0
 36
1.0
 17
0.0
 27
0.0
 37
0.0
 40
231.0
 41
1.60267857142857
 42
50.0
 43
0.0
 44
0.0
 50
0.0
 51
0.0
 71
     0
 72
   100
 73
     1
 74
     3
 75
     0
 76
     0
 77
     0
 78
     0
281
     0
 65
     1
110
0.0
120
0.0
130
0.0
111
1.0
121
0.0
131
0.0
112
0.0
122
1.0
132
0.0
 79
     0
146
0.0
  0
ENDTAB
  0
TABLE
  2
LTYPE
  5
5
330
0
100
AcDbSymbolTable
 70
    10
  0
LTYPE
  5
14
330
5
100
AcDbSymbolTableRecord
100
AcDbLinetypeTableRecord
  2
ByBlock
 70
     0
  3

 72
    65
 73
     0
 40
0.0
  0
LTYPE
  5
15
330
5
100
AcDbSymbolTableRecord
100
AcDbLinetypeTableRecord
  2
ByLayer
 70
     0
  3

 72
    65
 73
     0
 40
0.0
  0
LTYPE
  5
16
330
5
100
AcDbSymbolTableRecord
100
AcDbLinetypeTableRecord
  2
Continuous
 70
     0
  3
Solid line
 72
    65
 73
     0
 40
0.0
  0
LTYPE
  5
3F
330
5
100
AcDbSymbolTableRecord
100
AcDbLinetypeTableRecord
  2
DASHED
 70
     0
  3
Dashed
 72
    65
 73
     2
 40
15.0
 49
7.0
 74
     0
 49
-8.0
 74
     0
  0
LTYPE
  5
40
330
5
100
AcDbSymbolTableRecord
100
AcDbLinetypeTableRecord
  2
DOTTED
 70
     0
  3
Dotted
 72
    65
 73
     2
 40
1.0
 49
0.0
 74
     0
 49
-1.0
 74
     0
  0
LTYPE
  5
41
330
5
100
AcDbSymbolTableRecord
100
AcDbLinetypeTableRecord
  2
DOT_CENTER
 70
     0
  3
Dot_Center
 72
    65
 73
     4
 40
14.0
 49
12.0
 74
     0
 49
-1.0
 74
     0
 49
0.0
 74
     0
 49
-1.0
 74
     0
  0
LTYPE
  5
42
330
5
100
AcDbSymbolTableRecord
100
AcDbLinetypeTableRecord
  2
LONG_DASHED
 70
     0
  3
Long_Dashed
 72
    65
 73
     2
 40
15.0
 49
10.0
 74
     0
 49
-5.0
 74
     0
  0
LTYPE
  5
43
330
5
100
AcDbSymbolTableRecord
100
AcDbLinetypeTableRecord
  2
DASH_CENTER
 70
     0
  3
Dash_Center
 72
    65
 73
     4
 40
14.0
 49
11.0
 74
     0
 49
-1.0
 74
     0
 49
1.0
 74
     0
 49
-1.0
 74
     0
  0
LTYPE
  5
44
330
5
100
AcDbSymbolTableRecord
100
AcDbLinetypeTableRecord
  2
PHANTOM
 70
     0
  3
Phantom
 72
    65
 73
     6
 40
13.0
 49
10.0
 74
     0
 49
-1.0
 74
     0
 49
0.0
 74
     0
 49
-1.0
 74
     0
 49
0.0
 74
     0
 49
-1.0
 74
     0
  0
LTYPE
  5
45
330
5
100
AcDbSymbolTableRecord
100
AcDbLinetypeTableRecord
  2
CENTER_DASH_DASH
 70
     0
  3
Center_Dash_Dash
 72
    65
 73
     6
 40
14.0
 49
9.0
 74
     0
 49
-1.0
 74
     0
 49
1.0
 74
     0
 49
-1.0
 74
     0
 49
1.0
 74
     0
 49
-1.0
 74
     0
  0
LTYPE
  5
46
330
5
100
AcDbSymbolTableRecord
100
AcDbLinetypeTableRecord
  2
CHAIN
 70
     0
  3
CHAIN
 72
    65
 73
     4
 40
4.0
 49
1.0
 74
     0
 49
-1.0
 74
     0
 49
1.0
 74
     0
 49
-1.0
 74
     0
  0
LTYPE
  5
47
330
5
100
AcDbSymbolTableRecord
100
AcDbLinetypeTableRecord
  2
DASHED_SPACE
 70
     0
  3
DASHED_SPACE
 72
    65
 73
     2
 40
2.0
 49
1.0
 74
     0
 49
-1.0
 74
     0
  0
ENDTAB
  0
TABLE
  2
LAYER
  5
2
330
0
100
AcDbSymbolTable
 70
     8
  0
LAYER
  5
10
330
2
100
AcDbSymbolTableRecord
100
AcDbLayerTableRecord
  2
0
 70
     0
 62
     7
  6
Continuous
370
    -3
390
F
  0
LAYER
  5
48
330
2
100
AcDbSymbolTableRecord
100
AcDbLayerTableRecord
  2
1
 70
     0
 62
     7
  6
Continuous
370
    -3
390
F
  0
LAYER
  5
49
330
2
100
AcDbSymbolTableRecord
100
AcDbLayerTableRecord
  2
Bemaßungen_TC_020513_DIN_
 70
     0
 62
     7
  6
Continuous
370
    -3
390
F
  0
LAYER
  5
4A
330
2
100
AcDbSymbolTableRecord
100
AcDbLayerTableRecord
  2
Mittellinie_TC_020513_DIN_
 70
     0
 62
     7
  6
Continuous
370
    -3
390
F
  0
LAYER
  5
4B
330
2
100
AcDbSymbolTableRecord
100
AcDbLayerTableRecord
  2
Mittelpunktmarkierung_TC_020513_DIN_
 70
     0
 62
     7
  6
Continuous
370
    -3
390
F
  0
LAYER
  5
4C
330
2
100
AcDbSymbolTableRecord
100
AcDbLayerTableRecord
  2
Sichtbare_Kanten_TC_020513_DIN_
 70
     0
 62
     7
  6
Continuous
370
    -3
390
F
  0
LAYER
  5
4D
330
2
100
AcDbSymbolTableRecord
100
AcDbLayerTableRecord
  2
Stich_1-Linien_TC_020513_DIN_
 70
     0
 62
     7
  6
Continuous
370
    -3
390
F
  0
LAYER
  5
4E
330
2
100
AcDbSymbolTableRecord
100
AcDbLayerTableRecord
  2
Symbole_TC_020513_DIN_
 70
     0
 62
     7
  6
Continuous
370
    -3
390
F
  0
ENDTAB
  0
TABLE
  2
STYLE
  5
3
330
0
100
AcDbSymbolTable
 70
     5
  0
STYLE
  5
11
330
3
100
AcDbSymbolTableRecord
100
AcDbTextStyleTableRecord
  2
Standard
 70
     0
 40
0.0
 41
1.0
 50
0.0
 71
     0
 42
0.2
  3
txt
  4

  0
STYLE
  5
97
330
3
100
AcDbSymbolTableRecord
100
AcDbTextStyleTableRecord
  2
CONVERTER_11
 70
     0
 40
0.0
 41
0.9
 50
0.0
 71
     0
 42
0.2
  3
txt.shx
  4

  0
STYLE
  5
9A
330
3
100
AcDbSymbolTableRecord
100
AcDbTextStyleTableRecord
  2
CONVERTER_12
 70
     0
 40
0.0
 41
1.035
 50
0.0
 71
     0
 42
0.2
  3
txt.shx
  4

  0
STYLE
  5
51E
330
3
100
AcDbSymbolTableRecord
100
AcDbTextStyleTableRecord
  2
CONVERTER_13
 70
     0
 40
0.0
 41
0.75
 50
0.0
 71
     0
 42
0.2
  3
txt.shx
  4

  0
STYLE
  5
520
330
3
100
AcDbSymbolTableRecord
100
AcDbTextStyleTableRecord
  2
CONVERTER_14
 70
     0
 40
0.0
 41
0.95
 50
0.0
 71
     0
 42
0.2
  3
simplex.shx
  4

  0
ENDTAB
  0
TABLE
  2
VIEW
  5
6
330
0
100
AcDbSymbolTable
 70
     0
  0
ENDTAB
  0
TABLE
  2
UCS
  5
7
330
0
100
AcDbSymbolTable
 70
     0
  0
ENDTAB
  0
TABLE
  2
APPID
  5
9
330
0
100
AcDbSymbolTable
 70
     1
  0
APPID
  5
12
330
9
100
AcDbSymbolTableRecord
100
AcDbRegAppTableRecord
  2
ACAD
 70
     0
  0
ENDTAB
  0
TABLE
  2
DIMSTYLE
  5
A
330
0
100
AcDbSymbolTable
 70
    11
100
AcDbDimStyleTable
  0
DIMSTYLE
105
27
330
A
100
AcDbSymbolTableRecord
100
AcDbDimStyleTableRecord
  2
Standard
 70
     0
178
     0
340
11
  0
DIMSTYLE
105
52B
102
{ACAD_REACTORS
330
52C
102
}
330
A
100
AcDbSymbolTableRecord
100
AcDbDimStyleTableRecord
  2
ME10_DIM_10
 70
     0
 41
3.0
 42
0.5
 44
1.0
 73
     0
 74
     0
 77
     1
 78
     8
140
3.0
147
2.0
172
     1
173
     1
174
     1
175
     1
176
     2
177
     2
271
     2
178
     4
271
     2
340
520
  0
DIMSTYLE
105
536
102
{ACAD_REACTORS
330
537
102
}
330
A
100
AcDbSymbolTableRecord
100
AcDbDimStyleTableRecord
  2
ME10_DIM_11
 70
     0
 41
3.0
 42
0.5
 44
1.0
 73
     0
 74
     0
 77
     1
 78
     8
140
3.0
147
2.0
172
     1
173
     1
174
     1
175
     1
176
     2
177
     2
271
     2
178
     4
271
     2
340
520
  0
DIMSTYLE
105
541
102
{ACAD_REACTORS
330
542
102
}
330
A
100
AcDbSymbolTableRecord
100
AcDbDimStyleTableRecord
  2
ME10_DIM_12
 70
     0
 41
3.0
 42
0.5
 44
1.0
 73
     0
 74
     0
 77
     1
 78
     8
140
3.0
147
2.0
172
     1
173
     1
174
     1
175
     1
176
     2
177
     2
271
     2
178
     4
271
     2
340
520
  0
DIMSTYLE
105
54C
102
{ACAD_REACTORS
330
54D
102
}
330
A
100
AcDbSymbolTableRecord
100
AcDbDimStyleTableRecord
  2
ME10_DIM_13
 70
     0
 41
3.0
 42
0.5
 44
1.0
 73
     0
 74
     0
 77
     1
 78
     8
140
3.0
147
2.0
172
     1
173
     1
174
     1
175
     1
176
     2
177
     2
271
     2
178
     4
271
     2
340
520
  0
DIMSTYLE
105
559
102
{ACAD_REACTORS
330
55A
102
}
330
A
100
AcDbSymbolTableRecord
100
AcDbDimStyleTableRecord
  2
ME10_DIM_14
 70
     0
 41
3.0
 42
0.5
 44
1.0
 73
     0
 74
     0
 77
     1
 78
     8
140
3.0
147
2.0
172
     1
173
     1
174
     1
175
     1
176
     2
177
     2
271
     2
178
     4
271
     2
340
520
  0
DIMSTYLE
105
564
102
{ACAD_REACTORS
330
565
102
}
330
A
100
AcDbSymbolTableRecord
100
AcDbDimStyleTableRecord
  2
ME10_DIM_15
 70
     0
 41
3.0
 42
0.5
 44
1.0
 73
     0
 74
     0
 77
     1
 78
     8
140
3.0
147
2.0
172
     1
173
     1
174
     1
175
     1
176
     2
177
     2
271
     2
178
     4
271
     2
340
520
  0
DIMSTYLE
105
56F
102
{ACAD_REACTORS
330
570
102
}
330
A
100
AcDbSymbolTableRecord
100
AcDbDimStyleTableRecord
  2
ME10_DIM_16
 70
     0
 41
3.0
 42
0.5
 44
1.0
 73
     0
 74
     0
 77
     1
 78
     8
140
3.0
147
2.0
172
     1
173
     1
174
     1
175
     1
176
     2
177
     2
271
     2
178
     4
271
     2
340
520
  0
DIMSTYLE
105
57A
102
{ACAD_REACTORS
330
57B
102
}
330
A
100
AcDbSymbolTableRecord
100
AcDbDimStyleTableRecord
  2
ME10_DIM_17
 70
     0
 41
3.0
 42
0.5
 44
1.0
 73
     0
 74
     0
 77
     1
 78
     8
140
3.0
147
2.0
172
     1
173
     1
174
     1
175
     1
176
     2
177
     2
271
     2
178
     4
271
     2
340
520
  0
DIMSTYLE
105
585
102
{ACAD_REACTORS
330
586
102
}
330
A
100
AcDbSymbolTableRecord
100
AcDbDimStyleTableRecord
  2
ME10_DIM_18
 70
     0
 41
3.0
 42
0.5
 44
1.0
 73
     0
 74
     0
 77
     1
 78
     8
140
3.0
147
2.0
172
     1
173
     1
174
     1
175
     1
176
     2
177
     2
271
     2
178
     4
271
     2
340
520
  0
DIMSTYLE
105
590
102
{ACAD_REACTORS
330
591
102
}
330
A
100
AcDbSymbolTableRecord
100
AcDbDimStyleTableRecord
  2
ME10_DIM_19
 70
     0
 41
3.0
 42
0.5
 44
1.0
 73
     0
 74
     0
 77
     1
 78
     8
140
3.0
147
2.0
172
     1
173
     1
174
     1
175
     1
176
     2
177
     2
271
     2
178
     4
271
     2
340
520
  0
ENDTAB
  0
TABLE
  2
BLOCK_RECORD
  5
1
330
0
100
AcDbSymbolTable
 70
    12
  0
BLOCK_RECORD
  5
1F
330
1
100
AcDbSymbolTableRecord
100
AcDbBlockTableRecord
  2
*Model_Space
340
22
  0
BLOCK_RECORD
  5
1B
330
1
100
AcDbSymbolTableRecord
100
AcDbBlockTableRecord
  2
*Paper_Space
340
1E
  0
BLOCK_RECORD
  5
23
330
1
100
AcDbSymbolTableRecord
100
AcDbBlockTableRecord
  2
*Paper_Space0
340
26
  0
BLOCK_RECORD
  5
4F
330
1
100
AcDbSymbolTableRecord
100
AcDbBlockTableRecord
  2
_formato_A4
340
0
102
{BLKREFS
331
52
102
}
  0
BLOCK_RECORD
  5
522
330
1
100
AcDbSymbolTableRecord
100
AcDbBlockTableRecord
  2
*D2
340
0
  0
BLOCK_RECORD
  5
52D
330
1
100
AcDbSymbolTableRecord
100
AcDbBlockTableRecord
  2
*D3
340
0
  0
BLOCK_RECORD
  5
538
330
1
100
AcDbSymbolTableRecord
100
AcDbBlockTableRecord
  2
*D4
340
0
  0
BLOCK_RECORD
  5
543
330
1
100
AcDbSymbolTableRecord
100
AcDbBlockTableRecord
  2
*D5
340
0
  0
BLOCK_RECORD
  5
54E
330
1
100
AcDbSymbolTableRecord
100
AcDbBlockTableRecord
  2
*D6
340
0
  0
BLOCK_RECORD
  5
55B
330
1
100
AcDbSymbolTableRecord
100
AcDbBlockTableRecord
  2
*D7
340
0
  0
BLOCK_RECORD
  5
566
330
1
100
AcDbSymbolTableRecord
100
AcDbBlockTableRecord
  2
*D8
340
0
  0
BLOCK_RECORD
  5
571
330
1
100
AcDbSymbolTableRecord
100
AcDbBlockTableRecord
  2
*D9
340
0
  0
BLOCK_RECORD
  5
57C
330
1
100
AcDbSymbolTableRecord
100
AcDbBlockTableRecord
  2
*D10
340
0
  0
BLOCK_RECORD
  5
587
330
1
100
AcDbSymbolTableRecord
100
AcDbBlockTableRecord
  2
*D11
340
0
  0
ENDTAB
  0
ENDSEC
  0
SECTION
  2
BLOCKS
  0
BLOCK
  5
20
330
1F
100
AcDbEntity
  8
0
100
AcDbBlockBegin
  2
*Model_Space
 70
     0
 10
0.0
 20
0.0
 30
0.0
  3
*Model_Space
  1

  0
ENDBLK
  5
21
330
1F
100
AcDbEntity
  8
0
100
AcDbBlockEnd
  0
BLOCK
  5
1C
330
1B
100
AcDbEntity
 67
     1
  8
0
100
AcDbBlockBegin
  2
*Paper_Space
 70
     0
 10
0.0
 20
0.0
 30
0.0
  3
*Paper_Space
  1

  0
ENDBLK
  5
1D
330
1B
100
AcDbEntity
 67
     1
  8
0
100
AcDbBlockEnd
  0
BLOCK
  5
24
330
23
100
AcDbEntity
  8
0
100
AcDbBlockBegin
  2
*Paper_Space0
 70
     0
 10
0.0
 20
0.0
 30
0.0
  3
*Paper_Space0
  1

  0
ENDBLK
  5
25
330
23
100
AcDbEntity
  8
0
100
AcDbBlockEnd
  0
BLOCK
  5
50
330
4F
100
AcDbEntity
  8
0
100
AcDbBlockBegin
  2
_formato_A4
 70
     0
 10
296.9999999999999
 20
0.0
 30
0.0
  3
_formato_A4
  1

  0
LINE
  5
53
330
4F
100
AcDbEntity
  8
1
  6
Continuous
 62
     7
100
AcDbLine
 10
108.0
 20
9.99999999999986
 30
0.0
 11
138.0
 21
9.99999999999986
 31
0.0
  0
LINE
  5
54
330
4F
100
AcDbEntity
  8
1
  6
Continuous
 62
     7
100
AcDbLine
 10
108.0
 20
14.9999999999999
 30
0.0
 11
138.0
 21
14.9999999999999
 31
0.0
  0
LINE
  5
55
330
4F
100
AcDbEntity
  8
1
  6
Continuous
 62
     7
100
AcDbLine
 10
247.9999999999999
 20
20.0
 30
0.0
 11
247.9999999999999
 21
5.0
 31
0.0
  0
LINE
  5
56
330
4F
100
AcDbEntity
  8
1
  6
Continuous
 62
     7
100
AcDbLine
 10
265.352601377485
 20
20.0
 30
0.0
 11
265.352601377485
 21
5.0
 31
0.0
  0
LINE
  5
57
330
4F
100
AcDbEntity
  8
1
  6
Continuous
 62
     7
100
AcDbLine
 10
138.0
 20
20.0
 30
0.0
 11
138.0
 21
5.0
 31
0.0
  0
LINE
  5
58
330
4F
100
AcDbEntity
  8
1
  6
Continuous
 62
     7
100
AcDbLine
 10
148.5
 20
210.0
 30
0.0
 11
148.5
 21
195.0
 31
0.0
  0
LINE
  5
59
330
4F
100
AcDbEntity
  8
1
  6
Continuous
 62
     7
100
AcDbLine
 10
0.0
 20
0.0
 30
0.0
 11
296.9999999999999
 21
0.0
 31
0.0
  0
LINE
  5
5A
330
4F
100
AcDbEntity
  8
1
  6
Continuous
 62
     7
100
AcDbLine
 10
0.0
 20
210.0
 30
0.0
 11
0.0
 21
0.0
 31
0.0
  0
LINE
  5
5B
330
4F
100
AcDbEntity
  8
1
  6
Continuous
 62
     7
100
AcDbLine
 10
296.9999999999999
 20
210.0
 30
0.0
 11
0.0
 21
210.0
 31
0.0
  0
LINE
  5
5C
330
4F
100
AcDbEntity
  8
1
  6
Continuous
 62
     7
100
AcDbLine
 10
296.9999999999999
 20
0.0
 30
0.0
 11
296.9999999999999
 21
210.0
 31
0.0
  0
LINE
  5
5D
330
4F
100
AcDbEntity
  8
1
  6
Continuous
 62
     7
100
AcDbLine
 10
4.99999999999989
 20
5.0
 30
0.0
 11
108.0
 21
5.0
 31
0.0
  0
LINE
  5
5E
330
4F
100
AcDbEntity
  8
1
  6
Continuous
 62
     7
100
AcDbLine
 10
291.9999999999999
 20
5.0
 30
0.0
 11
291.9999999999999
 21
189.0
 31
0.0
  0
LINE
  5
5F
330
4F
100
AcDbEntity
  8
1
  6
Continuous
 62
     7
100
AcDbLine
 10
291.9999999999999
 20
189.0
 30
0.0
 11
4.99999999999989
 21
189.0
 31
0.0
  0
LINE
  5
60
102
{ACAD_REACTORS
330
A1
102
}
330
4F
100
AcDbEntity
  8
1
  6
Continuous
 62
     7
100
AcDbLine
 10
281.009634022076
 20
10.0774998398326
 30
0.0
 11
281.009634022076
 21
14.9225001601674
 31
0.0
  0
LINE
  5
61
102
{ACAD_REACTORS
330
9E
102
}
330
4F
100
AcDbEntity
  8
1
  6
Continuous
 62
     7
100
AcDbLine
 10
279.6763006887431
 20
12.5
 30
0.0
 11
279.6763006887431
 21
14.2320508075688
 31
0.0
  0
LINE
  5
62
102
{ACAD_REACTORS
330
9E
102
}
330
4F
100
AcDbEntity
  8
1
  6
Continuous
 62
     7
100
AcDbLine
 10
279.6763006887431
 20
14.2320508075688
 30
0.0
 11
278.82063825604
 21
12.75
 31
0.0
  0
LINE
  5
63
102
{ACAD_REACTORS
330
9E
102
}
330
4F
100
AcDbEntity
  8
1
  6
Continuous
 62
     7
100
AcDbLine
 10
278.531963121445
 20
12.75
 30
0.0
 11
277.6763006887431
 21
14.2320508075688
 31
0.0
  0
LINE
  5
64
102
{ACAD_REACTORS
330
9E
102
}
330
4F
100
AcDbEntity
  8
1
  6
Continuous
 62
     7
100
AcDbLine
 10
277.6763006887431
 20
14.2320508075688
 30
0.0
 11
277.6763006887431
 21
12.5
 31
0.0
  0
LINE
  5
65
330
4F
100
AcDbEntity
  8
1
  6
Continuous
 62
     7
100
AcDbLine
 10
270.2598654136011
 20
12.6443642643413
 30
0.0
 11
278.6763006887431
 21
17.5
 31
0.0
  0
LINE
  5
66
330
4F
100
AcDbEntity
  8
1
  6
Continuous
 62
     7
100
AcDbLine
 10
278.6763006887431
 20
17.5
 30
0.0
 11
287.092735963884
 21
12.6443642643413
 31
0.0
  0
LINE
  5
67
330
4F
100
AcDbEntity
  8
1
  6
Continuous
 62
     7
100
AcDbLine
 10
287.092735963884
 20
12.3556357356586
 30
0.0
 11
278.6763006887431
 21
7.5
 31
0.0
  0
LINE
  5
68
330
4F
100
AcDbEntity
  8
1
  6
Continuous
 62
     7
100
AcDbLine
 10
278.6763006887431
 20
7.5
 30
0.0
 11
270.2598654136011
 21
12.3556357356586
 31
0.0
  0
LINE
  5
69
102
{ACAD_REACTORS
330
9E
102
}
330
4F
100
AcDbEntity
  8
1
  6
Continuous
 62
     7
100
AcDbLine
 10
277.009634022076
 20
12.5
 30
0.0
 11
277.009634022076
 21
15.7312173120346
 31
0.0
  0
LINE
  5
6A
102
{ACAD_REACTORS
330
9E
102
}
330
4F
100
AcDbEntity
  8
1
  6
Continuous
 62
     7
100
AcDbLine
 10
277.5040677056999
 20
15.8637004182723
 30
0.0
 11
278.6763006887431
 21
13.8333333333333
 31
0.0
  0
LINE
  5
6B
102
{ACAD_REACTORS
330
9E
102
}
330
4F
100
AcDbEntity
  8
1
  6
Continuous
 62
     7
100
AcDbLine
 10
277.009634022076
 20
12.5
 30
0.0
 11
277.009634022076
 21
10.8475850726329
 31
0.0
  0
LINE
  5
6C
102
{ACAD_REACTORS
330
9E
102
}
330
4F
100
AcDbEntity
  8
1
  6
Continuous
 62
     7
100
AcDbLine
 10
277.6763006887431
 20
10.8475850726329
 30
0.0
 11
277.6763006887431
 21
12.5
 31
0.0
  0
LINE
  5
6D
102
{ACAD_REACTORS
330
9E
102
}
330
4F
100
AcDbEntity
  8
1
  6
Continuous
 62
     7
100
AcDbLine
 10
279.6763006887431
 20
12.5
 30
0.0
 11
279.6763006887431
 21
9.3082690706018
 31
0.0
  0
LINE
  5
6E
102
{ACAD_REACTORS
330
9E
102
}
330
4F
100
AcDbEntity
  8
1
  6
Continuous
 62
     7
100
AcDbLine
 10
280.3429673554089
 20
9.3082690706018
 30
0.0
 11
280.3429673554089
 21
15.7312173120346
 31
0.0
  0
LINE
  5
6F
102
{ACAD_REACTORS
330
9E
102
}
330
4F
100
AcDbEntity
  8
1
  6
Continuous
 62
     7
100
AcDbLine
 10
279.848533671786
 20
15.8637004182723
 30
0.0
 11
278.6763006887431
 21
13.8333333333333
 31
0.0
  0
LINE
  5
70
102
{ACAD_REACTORS
330
9F
102
}
330
4F
100
AcDbEntity
  8
1
  6
Continuous
 62
     7
100
AcDbLine
 10
275.6763006887431
 20
10.2700211480326
 30
0.0
 11
275.6763006887431
 21
14.9225001601674
 31
0.0
  0
LINE
  5
71
102
{ACAD_REACTORS
330
9F
102
}
330
4F
100
AcDbEntity
  8
1
  6
Continuous
 62
     7
100
AcDbLine
 10
276.3429673554089
 20
14.9225001601674
 30
0.0
 11
276.3429673554089
 21
10.2700211480327
 31
0.0
  0
LINE
  5
72
102
{ACAD_REACTORS
330
9F
102
}
330
4F
100
AcDbEntity
  8
1
  6
Continuous
 62
     7
100
AcDbLine
 10
276.3429673554089
 20
10.2700211480327
 30
0.0
 11
278.5095415065729
 21
9.0200745223616
 31
0.0
  0
LINE
  5
73
102
{ACAD_REACTORS
330
9F
102
}
330
4F
100
AcDbEntity
  8
1
  6
Continuous
 62
     7
100
AcDbLine
 10
278.176393204246
 20
8.44261746499581
 30
0.0
 11
276.0098190530829
 21
9.69256409066691
 31
0.0
  0
LINE
  5
74
102
{ACAD_REACTORS
330
A0
102
}
330
4F
100
AcDbEntity
  8
1
  6
Continuous
 62
     7
100
AcDbLine
 10
275.009634022076
 20
14.1532693909367
 30
0.0
 11
275.009634022076
 21
11.0392519172633
 31
0.0
  0
LINE
  5
75
102
{ACAD_REACTORS
330
A0
102
}
330
4F
100
AcDbEntity
  8
1
  6
Continuous
 62
     7
100
AcDbLine
 10
275.009634022076
 20
11.0392519172633
 30
0.0
 11
275.009634022076
 21
10.8467306090632
 31
0.0
  0
LINE
  5
76
102
{ACAD_REACTORS
330
A0
102
}
330
4F
100
AcDbEntity
  8
1
  6
Continuous
 62
     7
100
AcDbLine
 10
274.3429673554089
 20
10.8467306090632
 30
0.0
 11
274.3429673554089
 21
14.1532693909367
 31
0.0
  0
LINE
  5
77
102
{ACAD_REACTORS
330
A1
102
}
330
4F
100
AcDbEntity
  8
1
  6
Continuous
 62
     7
100
AcDbLine
 10
281.5095415065729
 20
15.2112286888503
 30
0.0
 11
282.842874839906
 21
14.4419979196194
 31
0.0
  0
LINE
  5
78
102
{ACAD_REACTORS
330
A1
102
}
330
4F
100
AcDbEntity
  8
1
  6
Continuous
 62
     7
100
AcDbLine
 10
282.50972653758
 20
13.8645408622538
 30
0.0
 11
281.6763006887431
 21
14.345363467352
 31
0.0
  0
LINE
  5
79
102
{ACAD_REACTORS
330
A1
102
}
330
4F
100
AcDbEntity
  8
1
  6
Continuous
 62
     7
100
AcDbLine
 10
281.6763006887431
 20
14.345363467352
 30
0.0
 11
281.6763006887431
 21
12.8333333333333
 31
0.0
  0
LINE
  5
7A
102
{ACAD_REACTORS
330
A1
102
}
330
4F
100
AcDbEntity
  8
1
  6
Continuous
 62
     7
100
AcDbLine
 10
281.6763006887431
 20
12.8333333333333
 30
0.0
 11
282.6763006887431
 21
12.8333333333333
 31
0.0
  0
LINE
  5
7B
102
{ACAD_REACTORS
330
A1
102
}
330
4F
100
AcDbEntity
  8
1
  6
Continuous
 62
     7
100
AcDbLine
 10
282.6763006887431
 20
12.1666666666666
 30
0.0
 11
281.6763006887431
 21
12.1666666666666
 31
0.0
  0
LINE
  5
7C
102
{ACAD_REACTORS
330
A1
102
}
330
4F
100
AcDbEntity
  8
1
  6
Continuous
 62
     7
100
AcDbLine
 10
281.6763006887431
 20
12.1666666666666
 30
0.0
 11
281.6763006887431
 21
10.6546365326479
 31
0.0
  0
LINE
  5
7D
102
{ACAD_REACTORS
330
A1
102
}
330
4F
100
AcDbEntity
  8
1
  6
Continuous
 62
     7
100
AcDbLine
 10
281.6763006887431
 20
10.6546365326479
 30
0.0
 11
282.50972653758
 21
11.1354591377462
 31
0.0
  0
LINE
  5
7E
102
{ACAD_REACTORS
330
A1
102
}
330
4F
100
AcDbEntity
  8
1
  6
Continuous
 62
     7
100
AcDbLine
 10
282.842874839906
 20
10.5580020803803
 30
0.0
 11
281.5095415065729
 21
9.78877131114973
 31
0.0
  0
LINE
  5
7F
330
4F
100
AcDbEntity
  8
1
  6
Continuous
 62
     7
100
AcDbLine
 10
108.0
 20
25.0
 30
0.0
 11
291.9999999999999
 21
25.0
 31
0.0
  0
LINE
  5
80
330
4F
100
AcDbEntity
  8
1
  6
Continuous
 62
     7
100
AcDbLine
 10
115.0
 20
20.0
 30
0.0
 11
115.0
 21
25.0
 31
0.0
  0
LINE
  5
81
330
4F
100
AcDbEntity
  8
1
  6
Continuous
 62
     7
100
AcDbLine
 10
133.0
 20
20.0
 30
0.0
 11
133.0
 21
25.0
 31
0.0
  0
LINE
  5
82
330
4F
100
AcDbEntity
  8
1
  6
Continuous
 62
     7
100
AcDbLine
 10
4.99999999999989
 20
189.0
 30
0.0
 11
4.99999999999989
 21
5.0
 31
0.0
  0
LINE
  5
83
330
4F
100
AcDbEntity
  8
1
  6
Continuous
 62
     7
100
AcDbLine
 10
108.0
 20
20.0
 30
0.0
 11
291.9999999999999
 21
20.0
 31
0.0
  0
LINE
  5
84
330
4F
100
AcDbEntity
  8
1
  6
Continuous
 62
     7
100
AcDbLine
 10
108.0
 20
25.0
 30
0.0
 11
108.0
 21
5.0
 31
0.0
  0
LINE
  5
85
330
4F
100
AcDbEntity
  8
1
  6
Continuous
 62
     7
100
AcDbLine
 10
108.0
 20
5.0
 30
0.0
 11
291.9999999999999
 21
5.0
 31
0.0
  0
ARC
  5
86
102
{ACAD_REACTORS
330
9E
102
}
330
4F
100
AcDbEntity
  8
1
  6
Continuous
 62
     7
100
AcDbCircle
 10
278.6763006887431
 20
12.8333333333333
 30
0.0
 40
0.1666666666672217
100
AcDbArc
 50
209.9999999998767
 51
329.9999999999279
  0
ARC
  5
87
102
{ACAD_REACTORS
330
9F
102
}
330
4F
100
AcDbEntity
  8
1
  6
Continuous
 62
     7
100
AcDbCircle
 10
276.3429673554089
 20
10.2700211480327
 30
0.0
 40
0.666666666665833
100
AcDbArc
 50
180.0000000000087
 51
240.018360631179
  0
ARC
  5
88
330
4F
100
AcDbEntity
  8
1
  6
Continuous
 62
     7
100
AcDbCircle
 10
270.343152489183
 20
12.5
 30
0.0
 40
0.1666666666666998
100
AcDbArc
 50
119.9816393689606
 51
240.0183606310565
  0
ARC
  5
89
330
4F
100
AcDbEntity
  8
1
  6
Continuous
 62
     7
100
AcDbCircle
 10
287.009448888303
 20
12.5
 30
0.0
 40
0.1666666666663598
100
AcDbArc
 50
299.9816393686896
 51
60.01836063129329
  0
ARC
  5
8A
102
{ACAD_REACTORS
330
A1
102
}
330
4F
100
AcDbEntity
  8
1
  6
Continuous
 62
     7
100
AcDbCircle
 10
281.3429673554089
 20
14.9225001601674
 30
0.0
 40
0.3333333333337433
100
AcDbArc
 50
60.01836063103966
 51
180.0
  0
ARC
  5
8B
102
{ACAD_REACTORS
330
A1
102
}
330
4F
100
AcDbEntity
  8
1
  6
Continuous
 62
     7
100
AcDbCircle
 10
281.3429673554089
 20
10.0774998398326
 30
0.0
 40
0.3333333333329165
100
AcDbArc
 50
180.0
 51
299.9816393689629
  0
ARC
  5
8C
102
{ACAD_REACTORS
330
9E
102
}
330
4F
100
AcDbEntity
  8
1
  6
Continuous
 62
     7
100
AcDbCircle
 10
277.274600234551
 20
15.7312173120346
 30
0.0
 40
0.264966212476014
100
AcDbArc
 50
29.99999999992336
 51
180.0
  0
ARC
  5
8D
102
{ACAD_REACTORS
330
9E
102
}
330
4F
100
AcDbEntity
  8
1
  6
Continuous
 62
     7
100
AcDbCircle
 10
277.3429673554089
 20
10.8475850726329
 30
0.0
 40
0.3333333333329165
100
AcDbArc
 50
180.0
 51
0.0
  0
ARC
  5
8E
102
{ACAD_REACTORS
330
9E
102
}
330
4F
100
AcDbEntity
  8
1
  6
Continuous
 62
     7
100
AcDbCircle
 10
280.009634022076
 20
9.3082690706018
 30
0.0
 40
0.3333333333329165
100
AcDbArc
 50
180.0
 51
0.0
  0
ARC
  5
8F
102
{ACAD_REACTORS
330
9E
102
}
330
4F
100
AcDbEntity
  8
1
  6
Continuous
 62
     7
100
AcDbCircle
 10
280.0780011429339
 20
15.7312173120346
 30
0.0
 40
0.2649662124750307
100
AcDbArc
 50
0.0
 51
149.9999999999599
  0
ARC
  5
90
102
{ACAD_REACTORS
330
9F
102
}
330
4F
100
AcDbEntity
  8
1
  6
Continuous
 62
     7
100
AcDbCircle
 10
276.009634022076
 20
14.9225001601674
 30
0.0
 40
0.3333333333329165
100
AcDbArc
 50
0.0
 51
180.0
  0
ARC
  5
91
102
{ACAD_REACTORS
330
9F
102
}
330
4F
100
AcDbEntity
  8
1
  6
Continuous
 62
     7
100
AcDbCircle
 10
278.3429673554089
 20
8.7313459936787
 30
0.0
 40
0.3333333333332227
100
AcDbArc
 50
240.0183606311911
 51
60.01836063103995
  0
ARC
  5
92
102
{ACAD_REACTORS
330
A0
102
}
330
4F
100
AcDbEntity
  8
1
  6
Continuous
 62
     7
100
AcDbCircle
 10
274.6763006887431
 20
14.1532693909367
 30
0.0
 40
0.3333333333329165
100
AcDbArc
 50
0.0
 51
180.0
  0
ARC
  5
93
102
{ACAD_REACTORS
330
A0
102
}
330
4F
100
AcDbEntity
  8
1
  6
Continuous
 62
     7
100
AcDbCircle
 10
274.6763006887431
 20
10.8467306090632
 30
0.0
 40
0.333333333334167
100
AcDbArc
 50
180.0
 51
0.0
  0
ARC
  5
94
102
{ACAD_REACTORS
330
A1
102
}
330
4F
100
AcDbEntity
  8
1
  6
Continuous
 62
     7
100
AcDbCircle
 10
282.6763006887431
 20
14.1532693909367
 30
0.0
 40
0.3333333333333172
100
AcDbArc
 50
240.0183606311666
 51
60.01836063117491
  0
ARC
  5
95
102
{ACAD_REACTORS
330
A1
102
}
330
4F
100
AcDbEntity
  8
1
  6
Continuous
 62
     7
100
AcDbCircle
 10
282.6763006887431
 20
12.5
 30
0.0
 40
0.3333333333333997
100
AcDbArc
 50
270.0
 51
90.0
  0
ARC
  5
96
102
{ACAD_REACTORS
330
A1
102
}
330
4F
100
AcDbEntity
  8
1
  6
Continuous
 62
     7
100
AcDbCircle
 10
282.6763006887431
 20
10.8467306090632
 30
0.0
 40
0.3333333333332335
100
AcDbArc
 50
299.9816393688079
 51
119.9816393688249
  0
MTEXT
  5
98
330
4F
100
AcDbEntity
  8
1
 62
     7
100
AcDbMText
 10
109.0
 20
7.49999999999987
 30
0.0
 40
3.0
 41
0.0
 71
     4
 72
     1
  1
Sign.
  7
CONVERTER_11
 73
     1
 44
0.75727272727273
  0
MTEXT
  5
99
330
4F
100
AcDbEntity
  8
1
 62
     7
100
AcDbMText
 10
109.0
 20
12.4999999999999
 30
0.0
 40
3.0
 41
0.0
 71
     4
 72
     1
  1
Date
  7
CONVERTER_11
 73
     1
 44
0.75727272727273
  0
MTEXT
  5
9B
330
4F
100
AcDbEntity
  8
1
 62
     7
100
AcDbMText
 10
123.0
 20
17.4999999999999
 30
0.0
 40
2.5
 41
0.0
 71
     5
 72
     1
  1
dimensions in mm
  7
CONVERTER_12
 73
     1
 44
0.75727272727273
  0
MTEXT
  5
9C
330
4F
100
AcDbEntity
  8
1
 62
     7
100
AcDbMText
 10
151.5
 20
194.0
 30
0.0
 40
4.0
 41
0.0
 71
     5
 72
     1
  1
Diritti riservati      All rights reserved
  7
CONVERTER_11
 73
     1
 44
0.75727272727273
  0
MTEXT
  5
9D
330
4F
100
AcDbEntity
  8
1
 62
     7
100
AcDbMText
 10
256.6763006887431
 20
16.260639420756
 30
0.0
 40
3.0
 41
0.0
 71
     5
 72
     1
  1
Scale
  7
CONVERTER_11
 73
     1
 44
0.75727272727273
  0
HATCH
  5
9E
330
4F
100
AcDbEntity
  8
1
  6
Continuous
 62
     7
100
AcDbHatch
 10
0.0
 20
0.0
 30
0.0
210
0.0
220
0.0
230
1.0
  2
SOLID
 70
     1
 71
     1
 91
        1
 92
        1
 93
       16
 72
     2
 10
277.274600234551
 20
15.7312173120346
 40
0.264966212476014
 50
29.99999999992336
 51
180.0
 73
     1
 72
     1
 10
277.009634022076
 20
15.7312173120346
 11
277.009634022076
 21
12.5
 72
     1
 10
277.009634022076
 20
12.5
 11
277.009634022076
 21
10.8475850726329
 72
     2
 10
277.3429673554089
 20
10.8475850726329
 40
0.3333333333329165
 50
180.0
 51
360.0
 73
     1
 72
     1
 10
277.6763006887431
 20
10.8475850726329
 11
277.6763006887431
 21
12.5
 72
     1
 10
277.6763006887431
 20
12.5
 11
277.6763006887431
 21
14.2320508075688
 72
     1
 10
277.6763006887431
 20
14.2320508075688
 11
278.531963121445
 21
12.75
 72
     2
 10
278.6763006887431
 20
12.8333333333333
 40
0.1666666666672217
 50
209.9999999998767
 51
329.9999999999279
 73
     1
 72
     1
 10
278.82063825604
 20
12.75
 11
279.6763006887431
 21
14.2320508075688
 72
     1
 10
279.6763006887431
 20
14.2320508075688
 11
279.6763006887431
 21
12.5
 72
     1
 10
279.6763006887431
 20
12.5
 11
279.6763006887431
 21
9.3082690706018
 72
     2
 10
280.009634022076
 20
9.3082690706018
 40
0.3333333333329165
 50
180.0
 51
360.0
 73
     1
 72
     1
 10
280.3429673554089
 20
9.3082690706018
 11
280.3429673554089
 21
15.7312173120346
 72
     2
 10
280.0780011429339
 20
15.7312173120346
 40
0.2649662124750307
 50
0.0
 51
149.9999999999599
 73
     1
 72
     1
 10
279.848533671786
 20
15.8637004182723
 11
278.6763006887431
 21
13.8333333333333
 72
     1
 10
278.6763006887431
 20
13.8333333333333
 11
277.5040677056999
 21
15.8637004182723
 97
       16
330
6F
330
8F
330
6E
330
8E
330
6D
330
61
330
62
330
86
330
63
330
64
330
6C
330
8D
330
6B
330
69
330
8C
330
6A
 75
     0
 76
     1
 98
        1
 10
0.0
 20
0.0
  0
HATCH
  5
9F
330
4F
100
AcDbEntity
  8
1
  6
Continuous
 62
     7
100
AcDbHatch
 10
0.0
 20
0.0
 30
0.0
210
0.0
220
0.0
230
1.0
  2
SOLID
 70
     1
 71
     1
 91
        1
 92
        1
 93
        7
 72
     1
 10
276.3429673554089
 20
14.9225001601674
 11
276.3429673554089
 21
10.2700211480327
 72
     1
 10
276.3429673554089
 20
10.2700211480327
 11
278.5095415065729
 21
9.0200745223616
 72
     2
 10
278.3429673554089
 20
8.731345993678698
 40
0.3333333333332227
 50
299.98163936896
 51
479.9816393688089
 73
     0
 72
     1
 10
278.176393204246
 20
8.44261746499581
 11
276.0098190530829
 21
9.69256409066691
 72
     2
 10
276.3429673554089
 20
10.2700211480327
 40
0.666666666665833
 50
119.981639368821
 51
179.9999999999913
 73
     0
 72
     1
 10
275.6763006887431
 20
10.2700211480326
 11
275.6763006887431
 21
14.9225001601674
 72
     2
 10
276.009634022076
 20
14.9225001601674
 40
0.3333333333329165
 50
180.0
 51
360.0
 73
     0
 97
        7
330
71
330
72
330
91
330
73
330
87
330
70
330
90
 75
     0
 76
     1
 98
        1
 10
0.0
 20
0.0
  0
HATCH
  5
A0
330
4F
100
AcDbEntity
  8
1
  6
Continuous
 62
     7
100
AcDbHatch
 10
0.0
 20
0.0
 30
0.0
210
0.0
220
0.0
230
1.0
  2
SOLID
 70
     1
 71
     1
 91
        1
 92
        1
 93
        5
 72
     1
 10
275.009634022076
 20
14.1532693909367
 11
275.009634022076
 21
11.0392519172633
 72
     1
 10
275.009634022076
 20
11.0392519172633
 11
275.009634022076
 21
10.8467306090632
 72
     2
 10
274.6763006887431
 20
10.8467306090632
 40
0.333333333334167
 50
0.0
 51
180.0
 73
     0
 72
     1
 10
274.3429673554089
 20
10.8467306090632
 11
274.3429673554089
 21
14.1532693909367
 72
     2
 10
274.6763006887431
 20
14.1532693909367
 40
0.3333333333329165
 50
180.0
 51
360.0
 73
     0
 97
        5
330
74
330
75
330
93
330
76
330
92
 75
     0
 76
     1
 98
        1
 10
0.0
 20
0.0
  0
HATCH
  5
A1
330
4F
100
AcDbEntity
  8
1
  6
Continuous
 62
     7
100
AcDbHatch
 10
0.0
 20
0.0
 30
0.0
210
0.0
220
0.0
230
1.0
  2
SOLID
 70
     1
 71
     1
 91
        1
 92
        1
 93
       14
 72
     1
 10
282.50972653758
 20
13.8645408622538
 11
281.6763006887431
 21
14.345363467352
 72
     1
 10
281.6763006887431
 20
14.345363467352
 11
281.6763006887431
 21
12.8333333333333
 72
     1
 10
281.6763006887431
 20
12.8333333333333
 11
282.6763006887431
 21
12.8333333333333
 72
     2
 10
282.6763006887431
 20
12.5
 40
0.3333333333333997
 50
270.0
 51
450.0
 73
     0
 72
     1
 10
282.6763006887431
 20
12.1666666666666
 11
281.6763006887431
 21
12.1666666666666
 72
     1
 10
281.6763006887431
 20
12.1666666666666
 11
281.6763006887431
 21
10.6546365326479
 72
     1
 10
281.6763006887431
 20
10.6546365326479
 11
282.50972653758
 21
11.1354591377462
 72
     2
 10
282.6763006887431
 20
10.8467306090632
 40
0.3333333333332335
 50
240.0183606311751
 51
420.0183606311921
 73
     0
 72
     1
 10
282.842874839906
 20
10.5580020803803
 11
281.5095415065729
 21
9.78877131114973
 72
     2
 10
281.3429673554089
 20
10.0774998398326
 40
0.3333333333329165
 50
60.01836063103707
 51
180.0
 73
     0
 72
     1
 10
281.009634022076
 20
10.0774998398326
 11
281.009634022076
 21
14.9225001601674
 72
     2
 10
281.3429673554089
 20
14.9225001601674
 40
0.3333333333337433
 50
180.0
 51
299.9816393689604
 73
     0
 72
     1
 10
281.5095415065729
 20
15.2112286888503
 11
282.842874839906
 21
14.4419979196194
 72
     2
 10
282.6763006887431
 20
14.1532693909367
 40
0.3333333333333172
 50
299.9816393688251
 51
479.9816393688335
 73
     0
 97
       14
330
77
330
8A
330
60
330
8B
330
7E
330
96
330
7D
330
7C
330
7B
330
95
330
7A
330
79
330
78
330
94
 75
     0
 76
     1
 98
        1
 10
0.0
 20
0.0
  0
ENDBLK
  5
51
330
4F
100
AcDbEntity
  8
0
100
AcDbBlockEnd
  0
BLOCK
  5
529
330
522
100
AcDbEntity
  8
0
100
AcDbBlockBegin
  2
*D2
 70
     1
 10
0.0
 20
0.0
 30
0.0
  3
*D2
  1

  0
LINE
  5
523
330
522
100
AcDbEntity
  8
1
  6
Continuous
 62
     2
100
AcDbLine
 10
123.684739057655
 20
63.1179588728187
 30
0.0
 11
53.68473905765517
 21
63.1179588728187
 31
0.0
  0
LINE
  5
524
330
522
100
AcDbEntity
  8
1
  6
Continuous
 62
     2
100
AcDbLine
 10
123.684739057655
 20
74.611887233321
 30
0.0
 11
123.684739057655
 21
62.1179588728187
 31
0.0
  0
LINE
  5
525
330
522
100
AcDbEntity
  8
1
  6
Continuous
 62
     2
100
AcDbLine
 10
53.68473905765517
 20
74.611887233321
 30
0.0
 11
53.68473905765517
 21
62.1179588728187
 31
0.0
  0
SOLID
  5
526
330
522
100
AcDbEntity
  8
1
 62
     2
100
AcDbTrace
 10
120.684739057655
 20
62.72300138005652
 30
0.0
 11
120.684739057655
 21
63.51291636558089
 31
0.0
 12
123.684739057655
 22
63.1179588728187
 32
0.0
 13
123.684739057655
 23
63.1179588728187
 33
0.0
  0
SOLID
  5
527
330
522
100
AcDbEntity
  8
1
 62
     2
100
AcDbTrace
 10
56.68473905765517
 20
63.51291636558089
 30
0.0
 11
56.68473905765517
 21
62.72300138005652
 31
0.0
 12
53.68473905765517
 22
63.1179588728187
 32
0.0
 13
53.68473905765517
 23
63.1179588728187
 33
0.0
  0
MTEXT
  5
528
330
522
100
AcDbEntity
  8
1
 62
     4
100
AcDbMText
 10
86.43473905765507
 20
65.1179588728187
 30
0.0
 40
3.0
 41
0.0
 71
     7
 72
     1
  1
70
  7
CONVERTER_14
 11
0.9999999999970619
 21
2.424068405545306E-6
 31
0.0
 73
     1
 44
0.60024009603842
  0
ENDBLK
  5
52A
330
522
100
AcDbEntity
  8
0
100
AcDbBlockEnd
  0
BLOCK
  5
534
330
52D
100
AcDbEntity
  8
0
100
AcDbBlockBegin
  2
*D3
 70
     1
 10
0.0
 20
0.0
 30
0.0
  3
*D3
  1

  0
LINE
  5
52E
330
52D
100
AcDbEntity
  8
1
  6
Continuous
 62
     2
100
AcDbLine
 10
129.684739057655
 20
51.951173597729
 30
0.0
 11
47.68473905765517
 21
51.951173597729
 31
0.0
  0
LINE
  5
52F
330
52D
100
AcDbEntity
  8
1
  6
Continuous
 62
     2
100
AcDbLine
 10
129.684739057655
 20
77.111887233321
 30
0.0
 11
129.684739057655
 21
50.951173597729
 31
0.0
  0
LINE
  5
530
330
52D
100
AcDbEntity
  8
1
  6
Continuous
 62
     2
100
AcDbLine
 10
47.68473905765517
 20
77.111887233321
 30
0.0
 11
47.68473905765517
 21
50.951173597729
 31
0.0
  0
SOLID
  5
531
330
52D
100
AcDbEntity
  8
1
 62
     2
100
AcDbTrace
 10
126.684739057655
 20
51.55621610496681
 30
0.0
 11
126.684739057655
 21
52.34613109049119
 31
0.0
 12
129.684739057655
 22
51.951173597729
 32
0.0
 13
129.684739057655
 23
51.951173597729
 33
0.0
  0
SOLID
  5
532
330
52D
100
AcDbEntity
  8
1
 62
     2
100
AcDbTrace
 10
50.68473905765517
 20
52.34613109049119
 30
0.0
 11
50.68473905765517
 21
51.55621610496681
 31
0.0
 12
47.68473905765517
 22
51.951173597729
 32
0.0
 13
47.68473905765517
 23
51.951173597729
 33
0.0
  0
MTEXT
  5
533
330
52D
100
AcDbEntity
  8
1
 62
     4
100
AcDbMText
 10
86.28473905765506
 20
53.951173597729
 30
0.0
 40
3.0
 41
0.0
 71
     7
 72
     1
  1
82
  7
CONVERTER_14
 11
0.9999999999970619
 21
2.424068405545306E-6
 31
0.0
 73
     1
 44
0.60024009603842
  0
ENDBLK
  5
535
330
52D
100
AcDbEntity
  8
0
100
AcDbBlockEnd
  0
BLOCK
  5
53F
330
538
100
AcDbEntity
  8
0
100
AcDbBlockBegin
  2
*D4
 70
     1
 10
0.0
 20
0.0
 30
0.0
  3
*D4
  1

  0
LINE
  5
539
330
538
100
AcDbEntity
  8
1
  6
Continuous
 62
     2
100
AcDbLine
 10
230.33034514323
 20
62.92542809221371
 30
0.0
 11
190.33034514323
 21
62.92542809221371
 31
0.0
  0
LINE
  5
53A
330
538
100
AcDbEntity
  8
1
  6
Continuous
 62
     2
100
AcDbLine
 10
230.33034514323
 20
74.611887233321
 30
0.0
 11
230.33034514323
 21
61.92542809221371
 31
0.0
  0
LINE
  5
53B
330
538
100
AcDbEntity
  8
1
  6
Continuous
 62
     2
100
AcDbLine
 10
190.33034514323
 20
74.611887233321
 30
0.0
 11
190.33034514323
 21
61.92542809221371
 31
0.0
  0
SOLID
  5
53C
330
538
100
AcDbEntity
  8
1
 62
     2
100
AcDbTrace
 10
227.33034514323
 20
62.53047059945152
 30
0.0
 11
227.33034514323
 21
63.3203855849759
 31
0.0
 12
230.33034514323
 22
62.92542809221371
 32
0.0
 13
230.33034514323
 23
62.92542809221371
 33
0.0
  0
SOLID
  5
53D
330
538
100
AcDbEntity
  8
1
 62
     2
100
AcDbTrace
 10
193.33034514323
 20
63.3203855849759
 30
0.0
 11
193.33034514323
 21
62.53047059945152
 31
0.0
 12
190.33034514323
 22
62.92542809221371
 32
0.0
 13
190.33034514323
 23
62.92542809221371
 33
0.0
  0
MTEXT
  5
53E
330
538
100
AcDbEntity
  8
1
 62
     4
100
AcDbMText
 10
208.08034514323
 20
64.9254280922137
 30
0.0
 40
3.0
 41
0.0
 71
     7
 72
     1
  1
40
  7
CONVERTER_14
 11
0.9999999999970619
 21
2.424068405545306E-6
 31
0.0
 73
     1
 44
0.60024009603842
  0
ENDBLK
  5
540
330
538
100
AcDbEntity
  8
0
100
AcDbBlockEnd
  0
BLOCK
  5
54A
330
543
100
AcDbEntity
  8
0
100
AcDbBlockBegin
  2
*D5
 70
     1
 10
0.0
 20
0.0
 30
0.0
  3
*D5
  1

  0
LINE
  5
544
330
543
100
AcDbEntity
  8
1
  6
Continuous
 62
     2
100
AcDbLine
 10
236.330345143228
 20
53.298889061964
 30
0.0
 11
184.330345143228
 21
53.298889061964
 31
0.0
  0
LINE
  5
545
330
543
100
AcDbEntity
  8
1
  6
Continuous
 62
     2
100
AcDbLine
 10
236.330345143228
 20
77.111887233321
 30
0.0
 11
236.330345143228
 21
52.298889061964
 31
0.0
  0
LINE
  5
546
330
543
100
AcDbEntity
  8
1
  6
Continuous
 62
     2
100
AcDbLine
 10
184.330345143228
 20
77.111887233321
 30
0.0
 11
184.330345143228
 21
52.298889061964
 31
0.0
  0
SOLID
  5
547
330
543
100
AcDbEntity
  8
1
 62
     2
100
AcDbTrace
 10
233.330345143228
 20
52.90393156920181
 30
0.0
 11
233.330345143228
 21
53.69384655472619
 31
0.0
 12
236.330345143228
 22
53.298889061964
 32
0.0
 13
236.330345143228
 23
53.298889061964
 33
0.0
  0
SOLID
  5
548
330
543
100
AcDbEntity
  8
1
 62
     2
100
AcDbTrace
 10
187.330345143228
 20
53.69384655472619
 30
0.0
 11
187.330345143228
 21
52.90393156920181
 31
0.0
 12
184.330345143228
 22
53.298889061964
 32
0.0
 13
184.330345143228
 23
53.298889061964
 33
0.0
  0
MTEXT
  5
549
330
543
100
AcDbEntity
  8
1
 62
     4
100
AcDbMText
 10
208.080345143228
 20
55.298889061964
 30
0.0
 40
3.0
 41
0.0
 71
     7
 72
     1
  1
52
  7
CONVERTER_14
 11
0.9999999999970619
 21
2.424068405545306E-6
 31
0.0
 73
     1
 44
0.60024009603842
  0
ENDBLK
  5
54B
330
543
100
AcDbEntity
  8
0
100
AcDbBlockEnd
  0
BLOCK
  5
557
330
54E
100
AcDbEntity
  8
0
100
AcDbBlockBegin
  2
*D6
 70
     1
 10
0.0
 20
0.0
 30
0.0
  3
*D6
  1

  0
LINE
  5
54F
330
54E
100
AcDbEntity
  8
1
  6
Continuous
 62
     2
100
AcDbLine
 10
251.9733799690987
 20
71.611887233321
 30
0.0
 11
251.9733799690987
 21
77.611887233321
 31
0.0
  0
LINE
  5
550
330
54E
100
AcDbEntity
  8
1
  6
Continuous
 62
     2
100
AcDbLine
 10
251.9733799690987
 20
77.611887233321
 30
0.0
 11
251.9733799690987
 21
81.611887233321
 31
0.0
  0
LINE
  5
551
330
54E
100
AcDbEntity
  8
1
  6
Continuous
 62
     2
100
AcDbLine
 10
251.9733799690987
 20
81.611887233321
 30
0.0
 11
251.9733799690987
 21
87.611887233321
 31
0.0
  0
LINE
  5
552
330
54E
100
AcDbEntity
  8
1
  6
Continuous
 62
     2
100
AcDbLine
 10
236.830345143228
 20
77.611887233321
 30
0.0
 11
252.9733799690987
 21
77.611887233321
 31
0.0
  0
LINE
  5
553
330
54E
100
AcDbEntity
  8
1
  6
Continuous
 62
     2
100
AcDbLine
 10
236.830345143228
 20
81.611887233321
 30
0.0
 11
252.9733799690987
 21
81.611887233321
 31
0.0
  0
SOLID
  5
554
330
54E
100
AcDbEntity
  8
1
 62
     2
100
AcDbTrace
 10
252.3683374618609
 20
74.611887233321
 30
0.0
 11
251.5784224763365
 21
74.611887233321
 31
0.0
 12
251.9733799690987
 22
77.611887233321
 32
0.0
 13
251.9733799690987
 23
77.611887233321
 33
0.0
  0
SOLID
  5
555
330
54E
100
AcDbEntity
  8
1
 62
     2
100
AcDbTrace
 10
251.5784224763365
 20
84.611887233321
 30
0.0
 11
252.3683374618609
 21
84.611887233321
 31
0.0
 12
251.9733799690987
 22
81.611887233321
 32
0.0
 13
251.9733799690987
 23
81.611887233321
 33
0.0
  0
MTEXT
  5
556
330
54E
100
AcDbEntity
  8
1
 62
     4
100
AcDbMText
 10
249.9733799690987
 20
78.711887233321
 30
0.0
 40
3.0
 41
0.0
 71
     7
 72
     1
  1
4
  7
CONVERTER_14
 11
0.0
 21
1.0
 31
0.0
 73
     1
 44
0.60024009603842
  0
ENDBLK
  5
558
330
54E
100
AcDbEntity
  8
0
100
AcDbBlockEnd
  0
BLOCK
  5
562
330
55B
100
AcDbEntity
  8
0
100
AcDbBlockBegin
  2
*D7
 70
     1
 10
0.0
 20
0.0
 30
0.0
  3
*D7
  1

  0
LINE
  5
55C
330
55B
100
AcDbEntity
  8
1
  6
Continuous
 62
     2
100
AcDbLine
 10
173.739848467964
 20
130.6118872333212
 30
0.0
 11
173.739848467964
 21
77.61188723332104
 31
0.0
  0
LINE
  5
55D
330
55B
100
AcDbEntity
  8
1
  6
Continuous
 62
     2
100
AcDbLine
 10
187.7803451432339
 20
130.6118872333212
 30
0.0
 11
172.739848467964
 21
130.6118872333212
 31
0.0
  0
LINE
  5
55E
330
55B
100
AcDbEntity
  8
1
  6
Continuous
 62
     2
100
AcDbLine
 10
183.830345143228
 20
77.61188723332104
 30
0.0
 11
172.739848467964
 21
77.61188723332104
 31
0.0
  0
SOLID
  5
55F
330
55B
100
AcDbEntity
  8
1
 62
     2
100
AcDbTrace
 10
174.1348059607262
 20
127.6118872333212
 30
0.0
 11
173.3448909752018
 21
127.6118872333212
 31
0.0
 12
173.739848467964
 22
130.6118872333212
 32
0.0
 13
173.739848467964
 23
130.6118872333212
 33
0.0
  0
SOLID
  5
560
330
55B
100
AcDbEntity
  8
1
 62
     2
100
AcDbTrace
 10
173.3448909752018
 20
80.61188723332104
 30
0.0
 11
174.1348059607262
 21
80.61188723332104
 31
0.0
 12
173.739848467964
 22
77.61188723332104
 32
0.0
 13
173.739848467964
 23
77.61188723332104
 33
0.0
  0
MTEXT
  5
561
330
55B
100
AcDbEntity
  8
1
 62
     4
100
AcDbMText
 10
171.739848467964
 20
101.8618872333211
 30
0.0
 40
3.0
 41
0.0
 71
     7
 72
     1
  1
53
  7
CONVERTER_14
 11
0.0
 21
1.0
 31
0.0
 73
     1
 44
0.60024009603842
  0
ENDBLK
  5
563
330
55B
100
AcDbEntity
  8
0
100
AcDbBlockEnd
  0
BLOCK
  5
56D
330
566
100
AcDbEntity
  8
0
100
AcDbBlockBegin
  2
*D8
 70
     1
 10
0.0
 20
0.0
 30
0.0
  3
*D8
  1

  0
LINE
  5
567
330
566
100
AcDbEntity
  8
1
  6
Continuous
 62
     2
100
AcDbLine
 10
184.330345143228
 20
158.135395792742
 30
0.0
 11
256.264295114951
 21
158.135395792742
 31
0.0
  0
LINE
  5
568
330
566
100
AcDbEntity
  8
1
  6
Continuous
 62
     2
100
AcDbLine
 10
184.330345143228
 20
82.111887233321
 30
0.0
 11
184.330345143228
 21
159.135395792742
 31
0.0
  0
LINE
  5
569
330
566
100
AcDbEntity
  8
1
  6
Continuous
 62
     2
100
AcDbLine
 10
256.264295114951
 20
113.1118872333211
 30
0.0
 11
256.264295114951
 21
159.135395792742
 31
0.0
  0
SOLID
  5
56A
330
566
100
AcDbEntity
  8
1
 62
     2
100
AcDbTrace
 10
187.330345143228
 20
158.5303532855042
 30
0.0
 11
187.330345143228
 21
157.7404382999798
 31
0.0
 12
184.330345143228
 22
158.135395792742
 32
0.0
 13
184.330345143228
 23
158.135395792742
 33
0.0
  0
SOLID
  5
56B
330
566
100
AcDbEntity
  8
1
 62
     2
100
AcDbTrace
 10
253.264295114951
 20
157.7404382999798
 30
0.0
 11
253.264295114951
 21
158.5303532855042
 31
0.0
 12
256.264295114951
 22
158.135395792742
 32
0.0
 13
256.264295114951
 23
158.135395792742
 33
0.0
  0
MTEXT
  5
56C
330
566
100
AcDbEntity
  8
1
 62
     4
100
AcDbMText
 10
218.0473201290895
 20
160.135395792742
 30
0.0
 40
3.0
 41
0.0
 71
     7
 72
     1
  1
70
  7
CONVERTER_14
 11
0.9999999999970619
 21
2.424068405545306E-6
 31
0.0
 73
     1
 44
0.60024009603842
  0
ENDBLK
  5
56E
330
566
100
AcDbEntity
  8
0
100
AcDbBlockEnd
  0
BLOCK
  5
578
330
571
100
AcDbEntity
  8
0
100
AcDbBlockBegin
  2
*D9
 70
     1
 10
0.0
 20
0.0
 30
0.0
  3
*D9
  1

  0
LINE
  5
572
330
571
100
AcDbEntity
  8
1
  6
Continuous
 62
     2
100
AcDbLine
 10
32.2671300803576
 20
77.61188723332104
 30
0.0
 11
32.2671300803576
 21
148.6118872333212
 31
0.0
  0
LINE
  5
573
330
571
100
AcDbEntity
  8
1
  6
Continuous
 62
     2
100
AcDbLine
 10
47.18473905765518
 20
77.61188723332104
 30
0.0
 11
31.2671300803576
 21
77.61188723332104
 31
0.0
  0
LINE
  5
574
330
571
100
AcDbEntity
  8
1
  6
Continuous
 62
     2
100
AcDbLine
 10
56.18473905765518
 20
148.6118872333212
 30
0.0
 11
31.2671300803576
 21
148.6118872333212
 31
0.0
  0
SOLID
  5
575
330
571
100
AcDbEntity
  8
1
 62
     2
100
AcDbTrace
 10
31.87217258759541
 20
80.61188723332104
 30
0.0
 11
32.66208757311979
 21
80.61188723332104
 31
0.0
 12
32.2671300803576
 22
77.61188723332104
 32
0.0
 13
32.2671300803576
 23
77.61188723332104
 33
0.0
  0
SOLID
  5
576
330
571
100
AcDbEntity
  8
1
 62
     2
100
AcDbTrace
 10
32.66208757311979
 20
145.6118872333212
 30
0.0
 11
31.87217258759541
 21
145.6118872333212
 31
0.0
 12
32.2671300803576
 22
148.6118872333212
 32
0.0
 13
32.2671300803576
 23
148.6118872333212
 33
0.0
  0
MTEXT
  5
577
330
571
100
AcDbEntity
  8
1
 62
     4
100
AcDbMText
 10
30.2671300803576
 20
111.3118872333211
 30
0.0
 40
3.0
 41
0.0
 71
     7
 72
     1
  1
71
  7
CONVERTER_14
 11
0.0
 21
1.0
 31
0.0
 73
     1
 44
0.60024009603842
  0
ENDBLK
  5
579
330
571
100
AcDbEntity
  8
0
100
AcDbBlockEnd
  0
BLOCK
  5
583
330
57C
100
AcDbEntity
  8
0
100
AcDbBlockBegin
  2
*D10
 70
     1
 10
0.0
 20
0.0
 30
0.0
  3
*D10
  1

  0
LINE
  5
57D
330
57C
100
AcDbEntity
  8
1
  6
Continuous
 62
     2
100
AcDbLine
 10
124.684739057655
 20
159.316206635965
 30
0.0
 11
52.68473905765517
 21
159.316206635965
 31
0.0
  0
LINE
  5
57E
330
57C
100
AcDbEntity
  8
1
  6
Continuous
 62
     2
100
AcDbLine
 10
124.684739057655
 20
128.1118872333211
 30
0.0
 11
124.684739057655
 21
160.316206635965
 31
0.0
  0
LINE
  5
57F
330
57C
100
AcDbEntity
  8
1
  6
Continuous
 62
     2
100
AcDbLine
 10
52.68473905765517
 20
128.1118872333211
 30
0.0
 11
52.68473905765517
 21
160.316206635965
 31
0.0
  0
SOLID
  5
580
330
57C
100
AcDbEntity
  8
1
 62
     2
100
AcDbTrace
 10
121.684739057655
 20
158.9212491432028
 30
0.0
 11
121.684739057655
 21
159.7111641287272
 31
0.0
 12
124.684739057655
 22
159.316206635965
 32
0.0
 13
124.684739057655
 23
159.316206635965
 33
0.0
  0
SOLID
  5
581
330
57C
100
AcDbEntity
  8
1
 62
     2
100
AcDbTrace
 10
55.68473905765517
 20
159.7111641287272
 30
0.0
 11
55.68473905765517
 21
158.9212491432028
 31
0.0
 12
52.68473905765517
 22
159.316206635965
 32
0.0
 13
52.68473905765517
 23
159.316206635965
 33
0.0
  0
MTEXT
  5
582
330
57C
100
AcDbEntity
  8
1
 62
     4
100
AcDbMText
 10
86.43473905765507
 20
161.316206635965
 30
0.0
 40
3.0
 41
0.0
 71
     7
 72
     1
  1
72
  7
CONVERTER_14
 11
0.9999999999970619
 21
2.424068405545306E-6
 31
0.0
 73
     1
 44
0.60024009603842
  0
ENDBLK
  5
584
330
57C
100
AcDbEntity
  8
0
100
AcDbBlockEnd
  0
BLOCK
  5
58E
330
587
100
AcDbEntity
  8
0
100
AcDbBlockBegin
  2
*D11
 70
     1
 10
0.0
 20
0.0
 30
0.0
  3
*D11
  1

  0
LINE
  5
588
330
587
100
AcDbEntity
  8
1
  6
Continuous
 62
     2
100
AcDbLine
 10
142.345437695076
 20
105.9338872333211
 30
0.0
 11
142.345437695076
 21
82.44988723332109
 31
0.0
  0
LINE
  5
589
330
587
100
AcDbEntity
  8
1
  6
Continuous
 62
     2
100
AcDbLine
 10
130.684739057655
 20
105.9338872333211
 30
0.0
 11
143.345437695076
 21
105.9338872333211
 31
0.0
  0
LINE
  5
58A
330
587
100
AcDbEntity
  8
1
  6
Continuous
 62
     2
100
AcDbLine
 10
130.584739057655
 20
82.44988723332109
 30
0.0
 11
143.345437695076
 21
82.44988723332109
 31
0.0
  0
SOLID
  5
58B
330
587
100
AcDbEntity
  8
1
 62
     2
100
AcDbTrace
 10
142.7403951878382
 20
102.9338872333211
 30
0.0
 11
141.9504802023138
 21
102.9338872333211
 31
0.0
 12
142.345437695076
 22
105.9338872333211
 32
0.0
 13
142.345437695076
 23
105.9338872333211
 33
0.0
  0
SOLID
  5
58C
330
587
100
AcDbEntity
  8
1
 62
     2
100
AcDbTrace
 10
141.9504802023138
 20
85.44988723332109
 30
0.0
 11
142.7403951878382
 21
85.44988723332109
 31
0.0
 12
142.345437695076
 22
82.44988723332109
 32
0.0
 13
142.345437695076
 23
82.44988723332109
 33
0.0
  0
MTEXT
  5
58D
330
587
100
AcDbEntity
  8
1
 62
     4
100
AcDbMText
 10
140.345437695076
 20
89.54188723332109
 30
0.0
 40
3.0
 41
0.0
 71
     7
 72
     1
  1
PG16
  7
CONVERTER_14
 11
0.0
 21
1.0
 31
0.0
 73
     1
 44
0.60024009603842
  0
ENDBLK
  5
58F
330
587
100
AcDbEntity
  8
0
100
AcDbBlockEnd
  0
ENDSEC
  0
SECTION
  2
ENTITIES
  0
INSERT
  5
52
330
1F
100
AcDbEntity
  8
1
100
AcDbBlockReference
  2
_formato_A4
 10
296.9999999999999
 20
0.0
 30
0.0
  0
POINT
  5
A2
330
1F
100
AcDbEntity
  8
Bemaßungen_TC_020513_DIN_
 62
     7
100
AcDbPoint
 10
194.080345143232
 20
130.6118872333211
 30
0.0
  0
POINT
  5
A3
330
1F
100
AcDbEntity
  8
Bemaßungen_TC_020513_DIN_
 62
     7
100
AcDbPoint
 10
184.330345143228
 20
77.611887233321
 30
0.0
  0
POINT
  5
A4
330
1F
100
AcDbEntity
  8
Bemaßungen_TC_020513_DIN_
 62
     7
100
AcDbPoint
 10
236.330345143228
 20
77.611887233321
 30
0.0
  0
POINT
  5
A5
330
1F
100
AcDbEntity
  8
Bemaßungen_TC_020513_DIN_
 62
     7
100
AcDbPoint
 10
236.330345143228
 20
81.611887233321
 30
0.0
  0
POINT
  5
A6
330
1F
100
AcDbEntity
  8
Bemaßungen_TC_020513_DIN_
 62
     7
100
AcDbPoint
 10
236.330345143228
 20
79.611887233321
 30
0.0
  0
POINT
  5
A7
330
1F
100
AcDbEntity
  8
Bemaßungen_TC_020513_DIN_
 62
     7
100
AcDbPoint
 10
184.330345143228
 20
79.611887233321
 30
0.0
  0
POINT
  5
A8
330
1F
100
AcDbEntity
  8
Bemaßungen_TC_020513_DIN_
 62
     7
100
AcDbPoint
 10
190.33034514323
 20
79.611887233321
 30
0.0
  0
POINT
  5
A9
330
1F
100
AcDbEntity
  8
Bemaßungen_TC_020513_DIN_
 62
     7
100
AcDbPoint
 10
230.3303451432299
 20
75.111887233321
 30
0.0
  0
POINT
  5
AA
330
1F
100
AcDbEntity
  8
Bemaßungen_TC_020513_DIN_
 62
     7
100
AcDbPoint
 10
129.684739057655
 20
79.611887233321
 30
0.0
  0
POINT
  5
AB
330
1F
100
AcDbEntity
  8
Bemaßungen_TC_020513_DIN_
 62
     7
100
AcDbPoint
 10
47.68473905765518
 20
79.611887233321
 30
0.0
  0
POINT
  5
AC
330
1F
100
AcDbEntity
  8
Bemaßungen_TC_020513_DIN_
 62
     7
100
AcDbPoint
 10
53.68473905765518
 20
75.111887233321
 30
0.0
  0
POINT
  5
AD
330
1F
100
AcDbEntity
  8
Bemaßungen_TC_020513_DIN_
 62
     7
100
AcDbPoint
 10
123.684739057655
 20
75.111887233321
 30
0.0
  0
POINT
  5
AE
330
1F
100
AcDbEntity
  8
Bemaßungen_TC_020513_DIN_
 62
     7
100
AcDbPoint
 10
47.68473905765518
 20
77.611887233321
 30
0.0
  0
POINT
  5
AF
330
1F
100
AcDbEntity
  8
Bemaßungen_TC_020513_DIN_
 62
     7
100
AcDbPoint
 10
56.68473905765518
 20
148.6118872333211
 30
0.0
  0
POINT
  5
B0
330
1F
100
AcDbEntity
  8
Bemaßungen_TC_020513_DIN_
 62
     7
100
AcDbPoint
 10
184.330345143228
 20
79.611887233321
 30
0.0
  0
POINT
  5
B1
330
1F
100
AcDbEntity
  8
Bemaßungen_TC_020513_DIN_
 62
     7
100
AcDbPoint
 10
256.264295114951
 20
112.6118872333211
 30
0.0
  0
POINT
  5
B2
330
1F
100
AcDbEntity
  8
Bemaßungen_TC_020513_DIN_
 62
     7
100
AcDbPoint
 10
124.684739057655
 20
127.6118872333211
 30
0.0
  0
POINT
  5
B3
330
1F
100
AcDbEntity
  8
Bemaßungen_TC_020513_DIN_
 62
     7
100
AcDbPoint
 10
52.68473905765518
 20
127.6118872333211
 30
0.0
  0
POINT
  5
B4
330
1F
100
AcDbEntity
  8
Bemaßungen_TC_020513_DIN_
 62
     7
100
AcDbPoint
 10
129.684739057655
 20
82.44988723332109
 30
0.0
  0
POINT
  5
B5
330
1F
100
AcDbEntity
  8
Bemaßungen_TC_020513_DIN_
 62
     7
100
AcDbPoint
 10
129.684739057655
 20
105.9338872333211
 30
0.0
  0
LWPOLYLINE
  5
36E
330
1F
100
AcDbEntity
  8
Mittelpunktmarkierung_TC_020513_DIN_
  6
CHAIN
 62
     7
100
AcDbPolyline
 90
        2
 70
     0
 43
0.25
 10
210.33034514323
 20
130.8118872333211
 10
210.33034514323
 20
116.4118872333211
  0
LWPOLYLINE
  5
36F
330
1F
100
AcDbEntity
  8
Mittelpunktmarkierung_TC_020513_DIN_
  6
CHAIN
 62
     7
100
AcDbPolyline
 90
        2
 70
     0
 43
0.25
 10
217.53034514323
 20
123.6118872333211
 10
203.13034514323
 20
123.6118872333211
  0
LWPOLYLINE
  5
370
330
1F
100
AcDbEntity
  8
Mittelpunktmarkierung_TC_020513_DIN_
  6
CHAIN
 62
     7
100
AcDbPolyline
 90
        2
 70
     0
 43
0.25
 10
207.3303451432309
 20
116.8618872333211
 10
207.3303451432309
 20
108.3618872333211
  0
LWPOLYLINE
  5
371
330
1F
100
AcDbEntity
  8
Mittelpunktmarkierung_TC_020513_DIN_
  6
CHAIN
 62
     7
100
AcDbPolyline
 90
        2
 70
     0
 43
0.25
 10
211.5803451432309
 20
112.6118872333211
 10
203.0803451432309
 20
112.6118872333211
  0
LWPOLYLINE
  5
372
330
1F
100
AcDbEntity
  8
Mittelpunktmarkierung_TC_020513_DIN_
  6
CHAIN
 62
     7
100
AcDbPolyline
 90
        2
 70
     0
 43
0.25
 10
210.330345143249
 20
108.4338872333211
 10
210.330345143249
 20
79.94988723332109
  0
LWPOLYLINE
  5
373
330
1F
100
AcDbEntity
  8
Mittelpunktmarkierung_TC_020513_DIN_
  6
CHAIN
 62
     7
100
AcDbPolyline
 90
        2
 70
     0
 43
0.25
 10
224.572345143249
 20
94.1918872333211
 10
196.0883451432489
 20
94.1918872333211
  0
LWPOLYLINE
  5
374
330
1F
100
AcDbEntity
  8
Mittellinie_TC_020513_DIN_
  6
CHAIN
 62
     7
100
AcDbPolyline
 90
        2
 70
     0
 43
0.25
 10
230.3303451432299
 20
75.111887233321
 10
230.3303451432299
 20
84.1118872333211
  0
LWPOLYLINE
  5
375
330
1F
100
AcDbEntity
  8
Mittellinie_TC_020513_DIN_
  6
CHAIN
 62
     7
100
AcDbPolyline
 90
        2
 70
     0
 43
0.25
 10
190.33034514323
 20
75.111887233321
 10
190.33034514323
 20
84.1118872333211
  0
LWPOLYLINE
  5
376
330
1F
100
AcDbEntity
  8
Mittellinie_TC_020513_DIN_
  6
CHAIN
 62
     7
100
AcDbPolyline
 90
        2
 70
     0
 43
0.25
 10
88.68473905765518
 20
75.7058046949206
 10
88.68473905765518
 20
142.8388322631081
  0
LWPOLYLINE
  5
377
330
1F
100
AcDbEntity
  8
Mittellinie_TC_020513_DIN_
  6
CHAIN
 62
     7
100
AcDbPolyline
 90
        2
 70
     0
 43
0.25
 10
120.184739057655
 20
123.6118872333211
 10
125.784739057655
 20
123.6118872333211
  0
LWPOLYLINE
  5
378
330
1F
100
AcDbEntity
  8
Mittellinie_TC_020513_DIN_
  6
CHAIN
 62
     7
100
AcDbPolyline
 90
        2
 70
     0
 43
0.25
 10
115.524739057655
 20
123.6118872333211
 10
123.784739057655
 20
123.6118872333211
  0
LWPOLYLINE
  5
379
330
1F
100
AcDbEntity
  8
Mittellinie_TC_020513_DIN_
  6
CHAIN
 62
     7
100
AcDbPolyline
 90
        2
 70
     0
 43
0.25
 10
53.58473905765516
 20
123.6118872333211
 10
61.8447390576552
 20
123.6118872333211
  0
LWPOLYLINE
  5
37A
330
1F
100
AcDbEntity
  8
Mittellinie_TC_020513_DIN_
  6
CHAIN
 62
     7
100
AcDbPolyline
 90
        2
 70
     0
 43
0.25
 10
51.58473905765516
 20
123.6118872333211
 10
57.18473905765518
 20
123.6118872333211
  0
LWPOLYLINE
  5
37B
330
1F
100
AcDbEntity
  8
Mittellinie_TC_020513_DIN_
  6
CHAIN
 62
     7
100
AcDbPolyline
 90
        2
 70
     0
 43
0.25
 10
53.68473905765518
 20
75.111887233321
 10
53.68473905765518
 20
84.1118872333211
  0
LWPOLYLINE
  5
37C
330
1F
100
AcDbEntity
  8
Mittellinie_TC_020513_DIN_
  6
CHAIN
 62
     7
100
AcDbPolyline
 90
        2
 70
     0
 43
0.25
 10
45.18473905765518
 20
94.1918872333211
 10
63.18473905765518
 20
94.1918872333211
  0
LWPOLYLINE
  5
37D
330
1F
100
AcDbEntity
  8
Mittellinie_TC_020513_DIN_
  6
CHAIN
 62
     7
100
AcDbPolyline
 90
        2
 70
     0
 43
0.25
 10
114.184739057655
 20
94.1918872333211
 10
132.184739057655
 20
94.1918872333211
  0
LWPOLYLINE
  5
37E
330
1F
100
AcDbEntity
  8
Mittellinie_TC_020513_DIN_
  6
CHAIN
 62
     7
100
AcDbPolyline
 90
        2
 70
     0
 43
0.25
 10
123.684739057655
 20
75.111887233321
 10
123.684739057655
 20
84.1118872333211
  0
LWPOLYLINE
  5
37F
330
1F
100
AcDbEntity
  8
Sichtbare_Kanten_TC_020513_DIN_
  6
Continuous
 62
     7
100
AcDbPolyline
 90
        2
 70
     0
 43
0.5
 10
241.13034514323
 20
114.1952499307301
 10
241.1303451432319
 20
111.3952499307301
  0
LWPOLYLINE
  5
380
330
1F
100
AcDbEntity
  8
Sichtbare_Kanten_TC_020513_DIN_
  6
Continuous
 62
     7
100
AcDbPolyline
 90
        2
 70
     0
 43
0.5
 10
234.130345143234
 20
111.3952499307301
 10
234.13034514323
 20
114.1952499307301
  0
LWPOLYLINE
  5
381
330
1F
100
AcDbEntity
  8
Sichtbare_Kanten_TC_020513_DIN_
  6
Continuous
 62
     7
100
AcDbPolyline
 90
        2
 70
     0
 43
0.5
 10
241.1303451432319
 20
111.3952499307301
 10
234.130345143234
 20
111.3952499307301
  0
LWPOLYLINE
  5
382
330
1F
100
AcDbEntity
  8
Sichtbare_Kanten_TC_020513_DIN_
  6
Continuous
 62
     7
100
AcDbPolyline
 90
        2
 70
     0
 43
0.5
 10
234.13034514323
 20
116.6118872333211
 10
234.13034514323
 20
114.1952499307301
  0
LWPOLYLINE
  5
383
330
1F
100
AcDbEntity
  8
Sichtbare_Kanten_TC_020513_DIN_
  6
Continuous
 62
     7
100
AcDbPolyline
 90
        2
 70
     0
 43
0.5
 10
222.3303451432309
 20
117.6118872333211
 10
233.13034514323
 20
117.6118872333211
  0
LWPOLYLINE
  5
384
330
1F
100
AcDbEntity
  8
Sichtbare_Kanten_TC_020513_DIN_
  6
Continuous
 62
     7
100
AcDbPolyline
 90
        2
 70
     0
 43
0.5
 10
203.3303451432309
 20
123.6118872333211
 10
203.3303451432309
 20
110.1118872333211
  0
LWPOLYLINE
  5
385
330
1F
100
AcDbEntity
  8
Sichtbare_Kanten_TC_020513_DIN_
  6
Continuous
 62
     7
100
AcDbPolyline
 90
        2
 70
     0
 43
0.5
 10
233.13034514323
 20
124.6118872333211
 10
220.3303451432309
 20
124.6118872333211
  0
LWPOLYLINE
  5
386
330
1F
100
AcDbEntity
  8
Sichtbare_Kanten_TC_020513_DIN_
  6
Continuous
 62
     7
100
AcDbPolyline
 90
        2
 70
     0
 43
0.5
 10
241.13034514323
 20
114.1952499307301
 10
241.13034514323
 20
116.6118872333211
  0
LWPOLYLINE
  5
387
330
1F
100
AcDbEntity
  8
Sichtbare_Kanten_TC_020513_DIN_
  6
Continuous
 62
     7
100
AcDbPolyline
 90
        2
 70
     0
 43
0.5
 10
241.519234032122
 20
112.7952499307301
 10
244.630345143235
 20
112.7952499307301
  0
LWPOLYLINE
  5
388
330
1F
100
AcDbEntity
  8
Sichtbare_Kanten_TC_020513_DIN_
  6
Continuous
 62
     7
100
AcDbPolyline
 90
        2
 70
     0
 43
0.5
 10
241.519234032122
 20
112.7952499307301
 10
241.1303451432319
 20
112.7952499307301
  0
LWPOLYLINE
  5
389
330
1F
100
AcDbEntity
  8
Sichtbare_Kanten_TC_020513_DIN_
  6
Continuous
 62
     7
100
AcDbPolyline
 90
        2
 70
     0
 43
0.5
 10
234.130345143234
 20
112.7952499307301
 10
234.092690228227
 20
112.7952499307301
  0
LWPOLYLINE
  5
38A
330
1F
100
AcDbEntity
  8
Sichtbare_Kanten_TC_020513_DIN_
  6
Continuous
 62
     7
100
AcDbPolyline
 90
        2
 70
     0
 43
0.5
 10
233.9926902282269
 20
111.2952499307301
 10
233.9926902282269
 20
110.4575950157231
  0
LWPOLYLINE
  5
38B
330
1F
100
AcDbEntity
  8
Sichtbare_Kanten_TC_020513_DIN_
  6
Continuous
 62
     7
100
AcDbPolyline
 90
        2
 70
     0
 43
0.5
 10
232.592690228227
 20
111.2952499307301
 10
232.592690228227
 20
110.4575950157231
  0
LWPOLYLINE
  5
38C
330
1F
100
AcDbEntity
  8
Sichtbare_Kanten_TC_020513_DIN_
  6
Continuous
 62
     7
100
AcDbPolyline
 90
        2
 70
     0
 43
0.5
 10
233.9926902282269
 20
110.4575950157231
 10
232.592690228227
 20
110.4575950157231
  0
LWPOLYLINE
  5
38D
330
1F
100
AcDbEntity
  8
Sichtbare_Kanten_TC_020513_DIN_
  6
Continuous
 62
     7
100
AcDbPolyline
 90
        2
 70
     0
 43
0.5
 10
244.630345143235
 20
111.3952499307301
 10
244.630345143235
 20
112.7952499307301
  0
LWPOLYLINE
  5
38E
330
1F
100
AcDbEntity
  8
Sichtbare_Kanten_TC_020513_DIN_
  6
Continuous
 62
     7
100
AcDbPolyline
 90
        2
 70
     0
 43
0.5
 10
234.130345143234
 20
111.3952499307301
 10
234.092690228227
 20
111.3952499307301
  0
LWPOLYLINE
  5
38F
330
1F
100
AcDbEntity
  8
Sichtbare_Kanten_TC_020513_DIN_
  6
Continuous
 62
     7
100
AcDbPolyline
 90
        2
 70
     0
 43
0.5
 10
241.519234032122
 20
111.3952499307301
 10
241.1303451432319
 20
111.3952499307301
  0
LWPOLYLINE
  5
390
330
1F
100
AcDbEntity
  8
Sichtbare_Kanten_TC_020513_DIN_
  6
Continuous
 62
     7
100
AcDbPolyline
 90
        2
 70
     0
 43
0.5
 10
241.519234032122
 20
111.3952499307301
 10
244.630345143235
 20
111.3952499307301
  0
LWPOLYLINE
  5
391
330
1F
100
AcDbEntity
  8
Sichtbare_Kanten_TC_020513_DIN_
  6
Continuous
 62
     7
100
AcDbPolyline
 90
        2
 70
     0
 43
0.5
 10
226.580345143232
 20
126.6118872333211
 10
232.580345143234
 20
126.6118872333211
  0
LWPOLYLINE
  5
392
330
1F
100
AcDbEntity
  8
Sichtbare_Kanten_TC_020513_DIN_
  6
Continuous
 62
     7
100
AcDbPolyline
 90
        2
 70
     0
 43
0.5
 10
232.580345143234
 20
124.6118872333211
 10
232.580345143234
 20
126.6118872333211
  0
LWPOLYLINE
  5
393
330
1F
100
AcDbEntity
  8
Sichtbare_Kanten_TC_020513_DIN_
  6
Continuous
 62
     7
100
AcDbPolyline
 90
        2
 70
     0
 43
0.5
 10
232.580345143234
 20
81.611887233321
 10
232.580345143234
 20
117.6118872333211
  0
LWPOLYLINE
  5
394
330
1F
100
AcDbEntity
  8
Sichtbare_Kanten_TC_020513_DIN_
  6
Continuous
 62
     7
100
AcDbPolyline
 90
        2
 70
     0
 43
0.5
 10
204.005789822895
 20
126.6118872333211
 10
194.080345143232
 20
126.6118872333211
  0
LWPOLYLINE
  5
395
330
1F
100
AcDbEntity
  8
Sichtbare_Kanten_TC_020513_DIN_
  6
Continuous
 62
     7
100
AcDbPolyline
 90
        2
 70
     0
 43
0.5
 10
226.580345143232
 20
126.6118872333211
 10
219.714678335226
 20
126.6118872333211
  0
LWPOLYLINE
  5
396
330
1F
100
AcDbEntity
  8
Sichtbare_Kanten_TC_020513_DIN_
  6
Continuous
 62
     7
100
AcDbPolyline
 90
        2
 70
     0
 43
0.5
 10
188.080345143234
 20
81.611887233321
 10
188.080345143234
 20
126.6118872333211
  0
LWPOLYLINE
  5
397
330
1F
100
AcDbEntity
  8
Sichtbare_Kanten_TC_020513_DIN_
  6
Continuous
 62
     7
100
AcDbPolyline
 90
        2
 70
     0
 43
0.5
 10
188.080345143234
 20
126.6118872333211
 10
194.080345143232
 20
126.6118872333211
  0
LWPOLYLINE
  5
398
330
1F
100
AcDbEntity
  8
Sichtbare_Kanten_TC_020513_DIN_
  6
Continuous
 62
     7
100
AcDbPolyline
 90
        2
 70
     0
 43
0.5
 10
232.380345143234
 20
130.6118872333211
 10
226.580345143232
 20
130.6118872333211
  0
LWPOLYLINE
  5
399
330
1F
100
AcDbEntity
  8
Sichtbare_Kanten_TC_020513_DIN_
  6
Continuous
 62
     7
100
AcDbPolyline
 90
        2
 70
     0
 43
0.5
 10
232.380345143234
 20
130.6118872333211
 10
232.380345143234
 20
126.6118872333211
  0
LWPOLYLINE
  5
39A
330
1F
100
AcDbEntity
  8
Sichtbare_Kanten_TC_020513_DIN_
  6
Continuous
 62
     7
100
AcDbPolyline
 90
        2
 70
     0
 43
0.5
 10
224.467512105411
 20
130.6118872333211
 10
226.580345143232
 20
130.6118872333211
  0
LWPOLYLINE
  5
39B
330
1F
100
AcDbEntity
  8
Sichtbare_Kanten_TC_020513_DIN_
  6
Continuous
 62
     7
100
AcDbPolyline
 90
        2
 70
     0
 43
0.5
 10
194.080345143232
 20
130.6118872333211
 10
213.330345143232
 20
130.6118872333211
  0
LWPOLYLINE
  5
39C
330
1F
100
AcDbEntity
  8
Sichtbare_Kanten_TC_020513_DIN_
  6
Continuous
 62
     7
100
AcDbPolyline
 90
        2
 70
     0
 43
0.5
 10
194.080345143232
 20
130.6118872333211
 10
188.2803451432339
 20
130.6118872333211
  0
LWPOLYLINE
  5
39D
330
1F
100
AcDbEntity
  8
Sichtbare_Kanten_TC_020513_DIN_
  6
Continuous
 62
     7
100
AcDbPolyline
 90
        2
 70
     0
 43
0.5
 10
188.2803451432339
 20
130.6118872333211
 10
188.2803451432339
 20
126.6118872333211
  0
LWPOLYLINE
  5
39E
330
1F
100
AcDbEntity
  8
Sichtbare_Kanten_TC_020513_DIN_
  6
Continuous
 62
     7
100
AcDbPolyline
 90
        2
 70
     0
 43
0.5
 10
236.330345143228
 20
77.611887233321
 10
236.330345143228
 20
81.611887233321
  0
LWPOLYLINE
  5
39F
330
1F
100
AcDbEntity
  8
Sichtbare_Kanten_TC_020513_DIN_
  6
Continuous
 62
     7
100
AcDbPolyline
 90
        2
 70
     0
 43
0.5
 10
184.330345143228
 20
77.611887233321
 10
184.330345143228
 20
81.611887233321
  0
LWPOLYLINE
  5
3A0
330
1F
100
AcDbEntity
  8
Sichtbare_Kanten_TC_020513_DIN_
  6
Continuous
 62
     7
100
AcDbPolyline
 90
        2
 70
     0
 43
0.5
 10
236.330345143228
 20
81.611887233321
 10
222.660345143228
 20
81.611887233321
  0
LWPOLYLINE
  5
3A1
330
1F
100
AcDbEntity
  8
Sichtbare_Kanten_TC_020513_DIN_
  6
Continuous
 62
     7
100
AcDbPolyline
 90
        2
 70
     0
 43
0.5
 10
198.000345143228
 20
81.611887233321
 10
184.330345143228
 20
81.611887233321
  0
LWPOLYLINE
  5
3A2
330
1F
100
AcDbEntity
  8
Sichtbare_Kanten_TC_020513_DIN_
  6
Continuous
 62
     7
100
AcDbPolyline
 90
        2
 70
     0
 43
0.5
 10
236.330345143228
 20
77.611887233321
 10
184.330345143228
 20
77.611887233321
  0
LWPOLYLINE
  5
3A3
330
1F
100
AcDbEntity
  8
Sichtbare_Kanten_TC_020513_DIN_
  6
Continuous
 62
     7
100
AcDbPolyline
 90
        2
 70
     0
 43
0.5
 10
198.000345143228
 20
81.611887233321
 10
198.000345143228
 20
94.1918872333211
  0
LWPOLYLINE
  5
3A4
330
1F
100
AcDbEntity
  8
Sichtbare_Kanten_TC_020513_DIN_
  6
Continuous
 62
     7
100
AcDbPolyline
 90
        2
 70
     0
 43
0.5
 10
222.660345143228
 20
94.1918872333211
 10
222.660345143228
 20
81.611887233321
  0
LWPOLYLINE
  5
3A5
330
1F
100
AcDbEntity
  8
Sichtbare_Kanten_TC_020513_DIN_
  6
Continuous
 62
     7
100
AcDbPolyline
 90
        2
 70
     0
 43
0.5
 10
239.896982445826
 20
142.1895098709071
 10
239.896982445826
 20
141.4055110011881
  0
LWPOLYLINE
  5
3A6
330
1F
100
AcDbEntity
  8
Sichtbare_Kanten_TC_020513_DIN_
  6
Continuous
 62
     7
100
AcDbPolyline
 90
        2
 70
     0
 43
0.5
 10
239.896982445826
 20
141.4055110011881
 10
239.896982445826
 20
140.7895098709071
  0
LWPOLYLINE
  5
3A7
330
1F
100
AcDbEntity
  8
Sichtbare_Kanten_TC_020513_DIN_
  6
Continuous
 62
     7
100
AcDbPolyline
 90
        2
 70
     0
 43
0.5
 10
208.73034514323
 20
113.3742323183131
 10
208.730345143231
 20
113.4742323183131
  0
LWPOLYLINE
  5
3A8
330
1F
100
AcDbEntity
  8
Sichtbare_Kanten_TC_020513_DIN_
  6
Continuous
 62
     7
100
AcDbPolyline
 90
        2
 70
     0
 43
0.5
 10
205.8303451432309
 20
113.4742323183131
 10
205.83034514323
 20
113.3742323183131
  0
LWPOLYLINE
  5
3A9
330
1F
100
AcDbEntity
  8
Sichtbare_Kanten_TC_020513_DIN_
  6
Continuous
 62
     7
100
AcDbPolyline
 90
        2
 70
     0
 43
0.5
 10
237.096982445826
 20
129.4126955398191
 10
237.88097859289
 20
129.4126955398191
  0
LWPOLYLINE
  5
3AA
330
1F
100
AcDbEntity
  8
Sichtbare_Kanten_TC_020513_DIN_
  6
Continuous
 62
     7
100
AcDbPolyline
 90
        2
 70
     0
 43
0.5
 10
237.88097859289
 20
129.4126955398191
 10
238.496982445826
 20
129.4126955398191
  0
LWPOLYLINE
  5
3AB
330
1F
100
AcDbEntity
  8
Sichtbare_Kanten_TC_020513_DIN_
  6
Continuous
 62
     7
100
AcDbPolyline
 90
        2
 70
     0
 43
0.5
 10
238.628151543974
 20
128.8210299733821
 10
238.069862455216
 20
128.5606954958291
  0
LWPOLYLINE
  5
3AC
330
1F
100
AcDbEntity
  8
Sichtbare_Kanten_TC_020513_DIN_
  6
Continuous
 62
     7
100
AcDbPolyline
 90
        2
 70
     0
 43
0.5
 10
238.069862455216
 20
128.5606954958291
 10
237.359320642123
 20
128.2293644069451
  0
LWPOLYLINE
  5
3AD
330
1F
100
AcDbEntity
  8
Sichtbare_Kanten_TC_020513_DIN_
  6
Continuous
 62
     7
100
AcDbPolyline
 90
        2
 70
     0
 43
0.5
 10
241.1967472046219
 20
123.3126588031321
 10
238.628151543974
 20
128.8210299733821
  0
LWPOLYLINE
  5
3AE
330
1F
100
AcDbEntity
  8
Sichtbare_Kanten_TC_020513_DIN_
  6
Continuous
 62
     7
100
AcDbPolyline
 90
        2
 70
     0
 43
0.5
 10
237.359320642123
 20
128.2293644069451
 10
239.927916302771
 20
122.7209932366961
  0
LWPOLYLINE
  5
3AF
330
1F
100
AcDbEntity
  8
Sichtbare_Kanten_TC_020513_DIN_
  6
Continuous
 62
     7
100
AcDbPolyline
 90
        2
 70
     0
 43
0.5
 10
241.1967472046219
 20
123.3126588031321
 10
241.823220418211
 20
121.9691826610791
  0
LWPOLYLINE
  5
3B0
330
1F
100
AcDbEntity
  8
Sichtbare_Kanten_TC_020513_DIN_
  6
Continuous
 62
     7
100
AcDbPolyline
 90
        2
 70
     0
 43
0.5
 10
241.823220418211
 20
121.9691826610791
 10
240.55438951636
 20
121.3775170946421
  0
LWPOLYLINE
  5
3B1
330
1F
100
AcDbEntity
  8
Sichtbare_Kanten_TC_020513_DIN_
  6
Continuous
 62
     7
100
AcDbPolyline
 90
        2
 70
     0
 43
0.5
 10
240.55438951636
 20
121.3775170946421
 10
239.927916302771
 20
122.7209932366961
  0
LWPOLYLINE
  5
3B2
330
1F
100
AcDbEntity
  8
Sichtbare_Kanten_TC_020513_DIN_
  6
Continuous
 62
     7
100
AcDbPolyline
 90
        2
 70
     0
 43
0.5
 10
205.83034514323
 20
113.3742323183131
 10
205.83034514323
 20
111.9742323183131
  0
LWPOLYLINE
  5
3B3
330
1F
100
AcDbEntity
  8
Sichtbare_Kanten_TC_020513_DIN_
  6
Continuous
 62
     7
100
AcDbPolyline
 90
        2
 70
     0
 43
0.5
 10
205.83034514323
 20
113.3742323183131
 10
206.33034514323
 20
113.3742323183131
  0
LWPOLYLINE
  5
3B4
330
1F
100
AcDbEntity
  8
Sichtbare_Kanten_TC_020513_DIN_
  6
Continuous
 62
     7
100
AcDbPolyline
 90
        2
 70
     0
 43
0.5
 10
206.33034514323
 20
111.9742323183131
 10
205.83034514323
 20
111.9742323183131
  0
LWPOLYLINE
  5
3B5
330
1F
100
AcDbEntity
  8
Sichtbare_Kanten_TC_020513_DIN_
  6
Continuous
 62
     7
100
AcDbPolyline
 90
        2
 70
     0
 43
0.5
 10
208.23034514323
 20
113.3742323183131
 10
206.33034514323
 20
113.3742323183131
  0
LWPOLYLINE
  5
3B6
330
1F
100
AcDbEntity
  8
Sichtbare_Kanten_TC_020513_DIN_
  6
Continuous
 62
     7
100
AcDbPolyline
 90
        2
 70
     0
 43
0.5
 10
206.33034514323
 20
111.9742323183131
 10
208.23034514323
 20
111.9742323183131
  0
LWPOLYLINE
  5
3B7
330
1F
100
AcDbEntity
  8
Sichtbare_Kanten_TC_020513_DIN_
  6
Continuous
 62
     7
100
AcDbPolyline
 90
        2
 70
     0
 43
0.5
 10
208.23034514323
 20
113.3742323183131
 10
208.73034514323
 20
113.3742323183131
  0
LWPOLYLINE
  5
3B8
330
1F
100
AcDbEntity
  8
Sichtbare_Kanten_TC_020513_DIN_
  6
Continuous
 62
     7
100
AcDbPolyline
 90
        2
 70
     0
 43
0.5
 10
208.73034514323
 20
111.9742323183131
 10
208.23034514323
 20
111.9742323183131
  0
LWPOLYLINE
  5
3B9
330
1F
100
AcDbEntity
  8
Sichtbare_Kanten_TC_020513_DIN_
  6
Continuous
 62
     7
100
AcDbPolyline
 90
        2
 70
     0
 43
0.5
 10
208.73034514323
 20
113.3742323183131
 10
208.73034514323
 20
111.9742323183131
  0
LWPOLYLINE
  5
3BA
330
1F
100
AcDbEntity
  8
Sichtbare_Kanten_TC_020513_DIN_
  6
Continuous
 62
     7
100
AcDbPolyline
 90
        2
 70
     0
 43
0.5
 10
244.831257838622
 20
142.1895098709071
 10
239.896982445826
 20
142.1895098709071
  0
LWPOLYLINE
  5
3BB
330
1F
100
AcDbEntity
  8
Sichtbare_Kanten_TC_020513_DIN_
  6
Continuous
 62
     7
100
AcDbPolyline
 90
        2
 70
     0
 43
0.5
 10
239.896982445826
 20
140.7895098709071
 10
244.831257838622
 20
140.7895098709071
  0
LWPOLYLINE
  5
3BC
330
1F
100
AcDbEntity
  8
Sichtbare_Kanten_TC_020513_DIN_
  6
Continuous
 62
     7
100
AcDbPolyline
 90
        2
 70
     0
 43
0.5
 10
246.313619748418
 20
140.7895098709071
 10
246.313619748418
 20
142.1895098709071
  0
LWPOLYLINE
  5
3BD
330
1F
100
AcDbEntity
  8
Sichtbare_Kanten_TC_020513_DIN_
  6
Continuous
 62
     7
100
AcDbPolyline
 90
        2
 70
     0
 43
0.5
 10
246.313619748418
 20
140.7895098709071
 10
244.831257838622
 20
140.7895098709071
  0
LWPOLYLINE
  5
3BE
330
1F
100
AcDbEntity
  8
Sichtbare_Kanten_TC_020513_DIN_
  6
Continuous
 62
     7
100
AcDbPolyline
 90
        2
 70
     0
 43
0.5
 10
244.831257838622
 20
142.1895098709071
 10
246.313619748418
 20
142.1895098709071
  0
LWPOLYLINE
  5
3BF
330
1F
100
AcDbEntity
  8
Sichtbare_Kanten_TC_020513_DIN_
  6
Continuous
 62
     7
100
AcDbPolyline
 90
        2
 70
     0
 43
0.5
 10
237.096982445826
 20
130.9728725683161
 10
237.096982445826
 20
130.7875773295921
  0
LWPOLYLINE
  5
3C0
330
1F
100
AcDbEntity
  8
Sichtbare_Kanten_TC_020513_DIN_
  6
Continuous
 62
     7
100
AcDbPolyline
 90
        2
 70
     0
 43
0.5
 10
237.096982445826
 20
130.7875773295921
 10
237.096982445826
 20
129.4126955398191
  0
LWPOLYLINE
  5
3C1
330
1F
100
AcDbEntity
  8
Sichtbare_Kanten_TC_020513_DIN_
  6
Continuous
 62
     7
100
AcDbPolyline
 90
        2
 70
     0
 43
0.5
 10
205.8303451432309
 20
113.4742323183131
 10
205.8303451432309
 20
113.5132750521871
  0
LWPOLYLINE
  5
3C2
330
1F
100
AcDbEntity
  8
Sichtbare_Kanten_TC_020513_DIN_
  6
Continuous
 62
     7
100
AcDbPolyline
 90
        2
 70
     0
 43
0.5
 10
213.3303451432309
 20
129.9364425536581
 10
213.3303451432309
 20
131.6118872333211
  0
LWPOLYLINE
  5
3C3
330
1F
100
AcDbEntity
  8
Sichtbare_Kanten_TC_020513_DIN_
  6
Continuous
 62
     7
100
AcDbPolyline
 90
        2
 70
     0
 43
0.5
 10
213.3303451432309
 20
131.6118872333211
 10
215.559223079567
 20
134.8270217640201
  0
LWPOLYLINE
  5
3C4
330
1F
100
AcDbEntity
  8
Sichtbare_Kanten_TC_020513_DIN_
  6
Continuous
 62
     7
100
AcDbPolyline
 90
        2
 70
     0
 43
0.5
 10
215.617347098901
 20
135.2850975003351
 10
214.5517020904071
 20
138.1707796364481
  0
LWPOLYLINE
  5
3C5
330
1F
100
AcDbEntity
  8
Sichtbare_Kanten_TC_020513_DIN_
  6
Continuous
 62
     7
100
AcDbPolyline
 90
        2
 70
     0
 43
0.5
 10
206.070063462403
 20
148.6118872333211
 10
214.070063462403
 20
148.6118872333211
  0
LWPOLYLINE
  5
3C6
330
1F
100
AcDbEntity
  8
Sichtbare_Kanten_TC_020513_DIN_
  6
Continuous
 62
     7
100
AcDbPolyline
 90
        2
 70
     0
 43
0.5
 10
232.35579066966
 20
143.4553485021111
 10
235.696982445822
 20
141.4081288175121
  0
LWPOLYLINE
  5
3C7
330
1F
100
AcDbEntity
  8
Sichtbare_Kanten_TC_020513_DIN_
  6
Continuous
 62
     7
100
AcDbPolyline
 90
        2
 70
     0
 43
0.5
 10
235.696982445822
 20
130.9728725683161
 10
234.3303451432309
 20
130.9728725683161
  0
LWPOLYLINE
  5
3C8
330
1F
100
AcDbEntity
  8
Sichtbare_Kanten_TC_020513_DIN_
  6
Continuous
 62
     7
100
AcDbPolyline
 90
        2
 70
     0
 43
0.5
 10
233.546045617045
 20
131.3524902239311
 10
230.722494906324
 20
134.9220784055141
  0
LWPOLYLINE
  5
3C9
330
1F
100
AcDbEntity
  8
Sichtbare_Kanten_TC_020513_DIN_
  6
Continuous
 62
     7
100
AcDbPolyline
 90
        2
 70
     0
 43
0.5
 10
230.020153971039
 20
135.0040369964141
 10
219.906397081804
 20
127.0040369964141
  0
LWPOLYLINE
  5
3CA
330
1F
100
AcDbEntity
  8
Sichtbare_Kanten_TC_020513_DIN_
  6
Continuous
 62
     7
100
AcDbPolyline
 90
        2
 70
     0
 43
0.5
 10
219.718490904951
 20
126.6554651046951
 10
219.591390549625
 20
125.2027013956241
  0
LWPOLYLINE
  5
3CB
330
1F
100
AcDbEntity
  8
Sichtbare_Kanten_TC_020513_DIN_
  6
Continuous
 62
     7
100
AcDbPolyline
 90
        2
 70
     0
 43
0.5
 10
208.766485804866
 20
113.6118872333211
 10
208.730345143231
 20
113.6118872333211
  0
LWPOLYLINE
  5
3CC
330
1F
100
AcDbEntity
  8
Sichtbare_Kanten_TC_020513_DIN_
  6
Continuous
 62
     7
100
AcDbPolyline
 90
        2
 70
     0
 43
0.5
 10
208.730345143231
 20
113.6118872333211
 10
208.730345143231
 20
113.4742323183131
  0
LWPOLYLINE
  5
3CD
330
1F
100
AcDbEntity
  8
Sichtbare_Kanten_TC_020513_DIN_
  6
Continuous
 62
     7
100
AcDbPolyline
 90
        2
 70
     0
 43
0.5
 10
238.496982445826
 20
129.4126955398191
 10
238.496982445826
 20
130.7875773295921
  0
LWPOLYLINE
  5
3CE
330
1F
100
AcDbEntity
  8
Sichtbare_Kanten_TC_020513_DIN_
  6
Continuous
 62
     7
100
AcDbPolyline
 90
        2
 70
     0
 43
0.5
 10
238.496982445826
 20
130.7875773295921
 10
238.4969824458229
 20
130.9728725683161
  0
LWPOLYLINE
  5
3CF
330
1F
100
AcDbEntity
  8
Sichtbare_Kanten_TC_020513_DIN_
  6
Continuous
 62
     7
100
AcDbPolyline
 90
        2
 70
     0
 43
0.5
 10
237.189481093408
 20
140.9728725683161
 10
238.4969824458229
 20
140.9728725683161
  0
LWPOLYLINE
  5
3D0
330
1F
100
AcDbEntity
  8
Sichtbare_Kanten_TC_020513_DIN_
  6
Continuous
 62
     7
100
AcDbPolyline
 90
        2
 70
     0
 43
0.5
 10
238.4969824458229
 20
130.9728725683161
 10
235.696982445822
 20
130.9728725683161
  0
LWPOLYLINE
  5
3D1
330
1F
100
AcDbEntity
  8
Sichtbare_Kanten_TC_020513_DIN_
  6
Continuous
 62
     7
100
AcDbPolyline
 90
        2
 70
     0
 43
0.5
 10
238.4969824458229
 20
140.9728725683161
 10
238.4969824458229
 20
130.9728725683161
  0
LWPOLYLINE
  5
3D2
330
1F
100
AcDbEntity
  8
Sichtbare_Kanten_TC_020513_DIN_
  6
Continuous
 62
     7
100
AcDbPolyline
 90
        2
 70
     0
 43
0.5
 10
54.68473905765518
 20
130.6118872333211
 10
56.08473905765516
 20
130.6118872333211
  0
LWPOLYLINE
  5
3D3
330
1F
100
AcDbEntity
  8
Sichtbare_Kanten_TC_020513_DIN_
  6
Continuous
 62
     7
100
AcDbPolyline
 90
        2
 70
     0
 43
0.5
 10
54.68473905765518
 20
108.8779468087151
 10
56.08473905765516
 20
108.8779468087151
  0
LWPOLYLINE
  5
3D4
330
1F
100
AcDbEntity
  8
Sichtbare_Kanten_TC_020513_DIN_
  6
Continuous
 62
     7
100
AcDbPolyline
 90
        2
 70
     0
 43
0.5
 10
54.68473905765518
 20
124.6118872333211
 10
56.08473905765516
 20
124.6118872333211
  0
LWPOLYLINE
  5
3D5
330
1F
100
AcDbEntity
  8
Sichtbare_Kanten_TC_020513_DIN_
  6
Continuous
 62
     7
100
AcDbPolyline
 90
        2
 70
     0
 43
0.5
 10
54.68473905765518
 20
114.1952499307301
 10
54.68473905765518
 20
108.8779468087151
  0
LWPOLYLINE
  5
3D6
330
1F
100
AcDbEntity
  8
Sichtbare_Kanten_TC_020513_DIN_
  6
Continuous
 62
     7
100
AcDbPolyline
 90
        2
 70
     0
 43
0.5
 10
54.68473905765518
 20
130.6118872333211
 10
54.68473905765518
 20
129.9038629469001
  0
LWPOLYLINE
  5
3D7
330
1F
100
AcDbEntity
  8
Sichtbare_Kanten_TC_020513_DIN_
  6
Continuous
 62
     7
100
AcDbPolyline
 90
        2
 70
     0
 43
0.5
 10
54.68473905765518
 20
129.9038629469001
 10
54.68473905765518
 20
124.7902994832291
  0
LWPOLYLINE
  5
3D8
330
1F
100
AcDbEntity
  8
Sichtbare_Kanten_TC_020513_DIN_
  6
Continuous
 62
     7
100
AcDbPolyline
 90
        2
 70
     0
 43
0.5
 10
54.68473905765518
 20
124.6118872333211
 10
54.68473905765518
 20
124.7902994832291
  0
LWPOLYLINE
  5
3D9
330
1F
100
AcDbEntity
  8
Sichtbare_Kanten_TC_020513_DIN_
  6
Continuous
 62
     7
100
AcDbPolyline
 90
        2
 70
     0
 43
0.5
 10
54.68473905765518
 20
124.6118872333211
 10
54.68473905765518
 20
116.6118872333211
  0
LWPOLYLINE
  5
3DA
330
1F
100
AcDbEntity
  8
Sichtbare_Kanten_TC_020513_DIN_
  6
Continuous
 62
     7
100
AcDbPolyline
 90
        2
 70
     0
 43
0.5
 10
54.68473905765518
 20
114.1952499307301
 10
54.68473905765518
 20
116.6118872333211
  0
LWPOLYLINE
  5
3DB
330
1F
100
AcDbEntity
  8
Sichtbare_Kanten_TC_020513_DIN_
  6
Continuous
 62
     7
100
AcDbPolyline
 90
        2
 70
     0
 43
0.5
 10
56.08473905765516
 20
114.1952499307301
 10
56.08473905765516
 20
116.6118872333211
  0
LWPOLYLINE
  5
3DC
330
1F
100
AcDbEntity
  8
Sichtbare_Kanten_TC_020513_DIN_
  6
Continuous
 62
     7
100
AcDbPolyline
 90
        2
 70
     0
 43
0.5
 10
56.08473905765516
 20
124.6118872333211
 10
56.08473905765516
 20
116.6118872333211
  0
LWPOLYLINE
  5
3DD
330
1F
100
AcDbEntity
  8
Sichtbare_Kanten_TC_020513_DIN_
  6
Continuous
 62
     7
100
AcDbPolyline
 90
        2
 70
     0
 43
0.5
 10
56.08473905765516
 20
124.6118872333211
 10
56.08473905765516
 20
124.7902994832291
  0
LWPOLYLINE
  5
3DE
330
1F
100
AcDbEntity
  8
Sichtbare_Kanten_TC_020513_DIN_
  6
Continuous
 62
     7
100
AcDbPolyline
 90
        2
 70
     0
 43
0.5
 10
56.08473905765516
 20
129.9038629469001
 10
56.08473905765516
 20
124.7902994832291
  0
LWPOLYLINE
  5
3DF
330
1F
100
AcDbEntity
  8
Sichtbare_Kanten_TC_020513_DIN_
  6
Continuous
 62
     7
100
AcDbPolyline
 90
        2
 70
     0
 43
0.5
 10
56.08473905765516
 20
130.6118872333211
 10
56.08473905765516
 20
129.9038629469001
  0
LWPOLYLINE
  5
3E0
330
1F
100
AcDbEntity
  8
Sichtbare_Kanten_TC_020513_DIN_
  6
Continuous
 62
     7
100
AcDbPolyline
 90
        2
 70
     0
 43
0.5
 10
56.08473905765516
 20
111.7703788001341
 10
56.08473905765516
 20
108.8779468087151
  0
LWPOLYLINE
  5
3E1
330
1F
100
AcDbEntity
  8
Sichtbare_Kanten_TC_020513_DIN_
  6
Continuous
 62
     7
100
AcDbPolyline
 90
        2
 70
     0
 43
0.5
 10
62.19292118517785
 20
112.7952499307301
 10
68.52527978463337
 20
112.7952499307301
  0
LWPOLYLINE
  5
3E2
330
1F
100
AcDbEntity
  8
Sichtbare_Kanten_TC_020513_DIN_
  6
Continuous
 62
     7
100
AcDbPolyline
 90
        2
 70
     0
 43
0.5
 10
62.19292118517785
 20
112.7952499307301
 10
61.40137636024588
 20
112.7952499307301
  0
LWPOLYLINE
  5
3E3
330
1F
100
AcDbEntity
  8
Sichtbare_Kanten_TC_020513_DIN_
  6
Continuous
 62
     7
100
AcDbPolyline
 90
        2
 70
     0
 43
0.5
 10
61.40137636024588
 20
112.7952499307301
 10
57.48473905765519
 20
112.7952499307301
  0
LWPOLYLINE
  5
3E4
330
1F
100
AcDbEntity
  8
Sichtbare_Kanten_TC_020513_DIN_
  6
Continuous
 62
     7
100
AcDbPolyline
 90
        2
 70
     0
 43
0.5
 10
67.40137636024588
 20
111.2952499307301
 10
67.40137636024588
 20
110.4575950157231
  0
LWPOLYLINE
  5
3E5
330
1F
100
AcDbEntity
  8
Sichtbare_Kanten_TC_020513_DIN_
  6
Continuous
 62
     7
100
AcDbPolyline
 90
        2
 70
     0
 43
0.5
 10
78.90137636024588
 20
110.9575950157231
 10
78.90137636024588
 20
111.2952499307301
  0
LWPOLYLINE
  5
3E6
330
1F
100
AcDbEntity
  8
Sichtbare_Kanten_TC_020513_DIN_
  6
Continuous
 62
     7
100
AcDbPolyline
 90
        2
 70
     0
 43
0.5
 10
67.40137636024588
 20
110.4575950157231
 10
78.40137636024588
 20
110.4575950157231
  0
LWPOLYLINE
  5
3E7
330
1F
100
AcDbEntity
  8
Sichtbare_Kanten_TC_020513_DIN_
  6
Continuous
 62
     7
100
AcDbPolyline
 90
        2
 70
     0
 43
0.5
 10
108.844198330677
 20
112.7952499307301
 10
68.52527978463337
 20
112.7952499307301
  0
LWPOLYLINE
  5
3E8
330
1F
100
AcDbEntity
  8
Sichtbare_Kanten_TC_020513_DIN_
  6
Continuous
 62
     7
100
AcDbPolyline
 90
        2
 70
     0
 43
0.5
 10
61.40137636024588
 20
111.3952499307301
 10
57.48473905765519
 20
111.3952499307301
  0
LWPOLYLINE
  5
3E9
330
1F
100
AcDbEntity
  8
Sichtbare_Kanten_TC_020513_DIN_
  6
Continuous
 62
     7
100
AcDbPolyline
 90
        2
 70
     0
 43
0.5
 10
62.19292118517785
 20
111.3952499307301
 10
61.40137636024588
 20
111.3952499307301
  0
LWPOLYLINE
  5
3EA
330
1F
100
AcDbEntity
  8
Sichtbare_Kanten_TC_020513_DIN_
  6
Continuous
 62
     7
100
AcDbPolyline
 90
        2
 70
     0
 43
0.5
 10
62.19292118517785
 20
111.3952499307301
 10
68.52527978463337
 20
111.3952499307301
  0
LWPOLYLINE
  5
3EB
330
1F
100
AcDbEntity
  8
Sichtbare_Kanten_TC_020513_DIN_
  6
Continuous
 62
     7
100
AcDbPolyline
 90
        2
 70
     0
 43
0.5
 10
108.844198330677
 20
111.3952499307301
 10
68.52527978463337
 20
111.3952499307301
  0
LWPOLYLINE
  5
3EC
330
1F
100
AcDbEntity
  8
Sichtbare_Kanten_TC_020513_DIN_
  6
Continuous
 62
     7
100
AcDbPolyline
 90
        2
 70
     0
 43
0.5
 10
121.284739057655
 20
130.6118872333211
 10
122.684739057655
 20
130.6118872333211
  0
LWPOLYLINE
  5
3ED
330
1F
100
AcDbEntity
  8
Sichtbare_Kanten_TC_020513_DIN_
  6
Continuous
 62
     7
100
AcDbPolyline
 90
        2
 70
     0
 43
0.5
 10
121.284739057655
 20
108.8779468087151
 10
122.684739057655
 20
108.8779468087151
  0
LWPOLYLINE
  5
3EE
330
1F
100
AcDbEntity
  8
Sichtbare_Kanten_TC_020513_DIN_
  6
Continuous
 62
     7
100
AcDbPolyline
 90
        2
 70
     0
 43
0.5
 10
115.176556930132
 20
111.3952499307301
 10
108.844198330677
 20
111.3952499307301
  0
LWPOLYLINE
  5
3EF
330
1F
100
AcDbEntity
  8
Sichtbare_Kanten_TC_020513_DIN_
  6
Continuous
 62
     7
100
AcDbPolyline
 90
        2
 70
     0
 43
0.5
 10
115.176556930132
 20
112.7952499307301
 10
108.844198330677
 20
112.7952499307301
  0
LWPOLYLINE
  5
3F0
330
1F
100
AcDbEntity
  8
Sichtbare_Kanten_TC_020513_DIN_
  6
Continuous
 62
     7
100
AcDbPolyline
 90
        2
 70
     0
 43
0.5
 10
115.176556930132
 20
111.3952499307301
 10
115.968101755064
 20
111.3952499307301
  0
LWPOLYLINE
  5
3F1
330
1F
100
AcDbEntity
  8
Sichtbare_Kanten_TC_020513_DIN_
  6
Continuous
 62
     7
100
AcDbPolyline
 90
        2
 70
     0
 43
0.5
 10
115.176556930132
 20
112.7952499307301
 10
115.968101755064
 20
112.7952499307301
  0
LWPOLYLINE
  5
3F2
330
1F
100
AcDbEntity
  8
Sichtbare_Kanten_TC_020513_DIN_
  6
Continuous
 62
     7
100
AcDbPolyline
 90
        2
 70
     0
 43
0.5
 10
115.968101755064
 20
111.3952499307301
 10
119.884739057655
 20
111.3952499307301
  0
LWPOLYLINE
  5
3F3
330
1F
100
AcDbEntity
  8
Sichtbare_Kanten_TC_020513_DIN_
  6
Continuous
 62
     7
100
AcDbPolyline
 90
        2
 70
     0
 43
0.5
 10
115.968101755064
 20
112.7952499307301
 10
119.884739057655
 20
112.7952499307301
  0
LWPOLYLINE
  5
3F4
330
1F
100
AcDbEntity
  8
Sichtbare_Kanten_TC_020513_DIN_
  6
Continuous
 62
     7
100
AcDbPolyline
 90
        2
 70
     0
 43
0.5
 10
122.684739057655
 20
124.6118872333211
 10
121.284739057655
 20
124.6118872333211
  0
LWPOLYLINE
  5
3F5
330
1F
100
AcDbEntity
  8
Sichtbare_Kanten_TC_020513_DIN_
  6
Continuous
 62
     7
100
AcDbPolyline
 90
        2
 70
     0
 43
0.5
 10
122.684739057655
 20
114.1952499307301
 10
122.684739057655
 20
116.6118872333211
  0
LWPOLYLINE
  5
3F6
330
1F
100
AcDbEntity
  8
Sichtbare_Kanten_TC_020513_DIN_
  6
Continuous
 62
     7
100
AcDbPolyline
 90
        2
 70
     0
 43
0.5
 10
122.684739057655
 20
124.6118872333211
 10
122.684739057655
 20
116.6118872333211
  0
LWPOLYLINE
  5
3F7
330
1F
100
AcDbEntity
  8
Sichtbare_Kanten_TC_020513_DIN_
  6
Continuous
 62
     7
100
AcDbPolyline
 90
        2
 70
     0
 43
0.5
 10
122.684739057655
 20
124.6118872333211
 10
122.684739057655
 20
124.7902994832291
  0
LWPOLYLINE
  5
3F8
330
1F
100
AcDbEntity
  8
Sichtbare_Kanten_TC_020513_DIN_
  6
Continuous
 62
     7
100
AcDbPolyline
 90
        2
 70
     0
 43
0.5
 10
122.684739057655
 20
129.9038629469001
 10
122.684739057655
 20
124.7902994832291
  0
LWPOLYLINE
  5
3F9
330
1F
100
AcDbEntity
  8
Sichtbare_Kanten_TC_020513_DIN_
  6
Continuous
 62
     7
100
AcDbPolyline
 90
        2
 70
     0
 43
0.5
 10
122.684739057655
 20
130.6118872333211
 10
122.684739057655
 20
129.9038629469001
  0
LWPOLYLINE
  5
3FA
330
1F
100
AcDbEntity
  8
Sichtbare_Kanten_TC_020513_DIN_
  6
Continuous
 62
     7
100
AcDbPolyline
 90
        2
 70
     0
 43
0.5
 10
122.684739057655
 20
114.1952499307301
 10
122.684739057655
 20
108.8779468087151
  0
LWPOLYLINE
  5
3FB
330
1F
100
AcDbEntity
  8
Sichtbare_Kanten_TC_020513_DIN_
  6
Continuous
 62
     7
100
AcDbPolyline
 90
        2
 70
     0
 43
0.5
 10
121.284739057655
 20
111.7703788001341
 10
121.284739057655
 20
108.8779468087151
  0
LWPOLYLINE
  5
3FC
330
1F
100
AcDbEntity
  8
Sichtbare_Kanten_TC_020513_DIN_
  6
Continuous
 62
     7
100
AcDbPolyline
 90
        2
 70
     0
 43
0.5
 10
121.284739057655
 20
130.6118872333211
 10
121.284739057655
 20
129.9038629469001
  0
LWPOLYLINE
  5
3FD
330
1F
100
AcDbEntity
  8
Sichtbare_Kanten_TC_020513_DIN_
  6
Continuous
 62
     7
100
AcDbPolyline
 90
        2
 70
     0
 43
0.5
 10
121.284739057655
 20
129.9038629469001
 10
121.284739057655
 20
124.7902994832291
  0
LWPOLYLINE
  5
3FE
330
1F
100
AcDbEntity
  8
Sichtbare_Kanten_TC_020513_DIN_
  6
Continuous
 62
     7
100
AcDbPolyline
 90
        2
 70
     0
 43
0.5
 10
121.284739057655
 20
124.6118872333211
 10
121.284739057655
 20
124.7902994832291
  0
LWPOLYLINE
  5
3FF
330
1F
100
AcDbEntity
  8
Sichtbare_Kanten_TC_020513_DIN_
  6
Continuous
 62
     7
100
AcDbPolyline
 90
        2
 70
     0
 43
0.5
 10
121.284739057655
 20
124.6118872333211
 10
121.284739057655
 20
116.6118872333211
  0
LWPOLYLINE
  5
400
330
1F
100
AcDbEntity
  8
Sichtbare_Kanten_TC_020513_DIN_
  6
Continuous
 62
     7
100
AcDbPolyline
 90
        2
 70
     0
 43
0.5
 10
121.284739057655
 20
114.1952499307301
 10
121.284739057655
 20
116.6118872333211
  0
LWPOLYLINE
  5
401
330
1F
100
AcDbEntity
  8
Sichtbare_Kanten_TC_020513_DIN_
  6
Continuous
 62
     7
100
AcDbPolyline
 90
        2
 70
     0
 43
0.5
 10
109.968101755064
 20
111.2952499307301
 10
109.968101755064
 20
110.4575950157231
  0
LWPOLYLINE
  5
402
330
1F
100
AcDbEntity
  8
Sichtbare_Kanten_TC_020513_DIN_
  6
Continuous
 62
     7
100
AcDbPolyline
 90
        2
 70
     0
 43
0.5
 10
98.46810175506397
 20
110.9575950157231
 10
98.46810175506397
 20
111.2952499307301
  0
LWPOLYLINE
  5
403
330
1F
100
AcDbEntity
  8
Sichtbare_Kanten_TC_020513_DIN_
  6
Continuous
 62
     7
100
AcDbPolyline
 90
        2
 70
     0
 43
0.5
 10
109.968101755064
 20
110.4575950157231
 10
98.96810175506397
 20
110.4575950157231
  0
LWPOLYLINE
  5
404
330
1F
100
AcDbEntity
  8
Sichtbare_Kanten_TC_020513_DIN_
  6
Continuous
 62
     7
100
AcDbPolyline
 90
        2
 70
     0
 43
0.5
 10
78.90137636024588
 20
111.2952499307301
 10
78.90137636024588
 20
111.3751157965161
  0
LWPOLYLINE
  5
405
330
1F
100
AcDbEntity
  8
Sichtbare_Kanten_TC_020513_DIN_
  6
Continuous
 62
     7
100
AcDbPolyline
 90
        2
 70
     0
 43
0.5
 10
67.40137636024588
 20
111.3952499307301
 10
67.40137636024588
 20
111.2952499307301
  0
LWPOLYLINE
  5
406
330
1F
100
AcDbEntity
  8
Sichtbare_Kanten_TC_020513_DIN_
  6
Continuous
 62
     7
100
AcDbPolyline
 90
        2
 70
     0
 43
0.5
 10
109.968101755064
 20
111.2952499307301
 10
109.968101755064
 20
111.3952499307301
  0
LWPOLYLINE
  5
407
330
1F
100
AcDbEntity
  8
Sichtbare_Kanten_TC_020513_DIN_
  6
Continuous
 62
     7
100
AcDbPolyline
 90
        2
 70
     0
 43
0.5
 10
98.46810175506397
 20
111.3751157965161
 10
98.46810175506397
 20
111.2952499307301
  0
LWPOLYLINE
  5
408
330
1F
100
AcDbEntity
  8
Sichtbare_Kanten_TC_020513_DIN_
  6
Continuous
 62
     7
100
AcDbPolyline
 90
        2
 70
     0
 43
0.5
 10
120.684739057655
 20
121.1118872333211
 10
121.284739057655
 20
121.1118872333211
  0
LWPOLYLINE
  5
409
330
1F
100
AcDbEntity
  8
Sichtbare_Kanten_TC_020513_DIN_
  6
Continuous
 62
     7
100
AcDbPolyline
 90
        2
 70
     0
 43
0.5
 10
118.024739057655
 20
121.1118872333211
 10
119.284739057655
 20
121.1118872333211
  0
LWPOLYLINE
  5
40A
330
1F
100
AcDbEntity
  8
Sichtbare_Kanten_TC_020513_DIN_
  6
Continuous
 62
     7
100
AcDbPolyline
 90
        2
 70
     0
 43
0.5
 10
120.684739057655
 20
126.1118872333211
 10
121.284739057655
 20
126.1118872333211
  0
LWPOLYLINE
  5
40B
330
1F
100
AcDbEntity
  8
Sichtbare_Kanten_TC_020513_DIN_
  6
Continuous
 62
     7
100
AcDbPolyline
 90
        2
 70
     0
 43
0.5
 10
118.024739057655
 20
126.1118872333211
 10
119.284739057655
 20
126.1118872333211
  0
LWPOLYLINE
  5
40C
330
1F
100
AcDbEntity
  8
Sichtbare_Kanten_TC_020513_DIN_
  6
Continuous
 62
     7
100
AcDbPolyline
 90
        2
 70
     0
 43
0.5
 10
122.684739057655
 20
121.1118872333211
 10
123.284739057655
 20
121.1118872333211
  0
LWPOLYLINE
  5
40D
330
1F
100
AcDbEntity
  8
Sichtbare_Kanten_TC_020513_DIN_
  6
Continuous
 62
     7
100
AcDbPolyline
 90
        2
 70
     0
 43
0.5
 10
122.684739057655
 20
126.1118872333211
 10
123.284739057655
 20
126.1118872333211
  0
LWPOLYLINE
  5
40E
330
1F
100
AcDbEntity
  8
Sichtbare_Kanten_TC_020513_DIN_
  6
Continuous
 62
     7
100
AcDbPolyline
 90
        2
 70
     0
 43
0.5
 10
117.934739057655
 20
122.1118872333211
 10
118.024739057655
 20
122.1118872333211
  0
LWPOLYLINE
  5
40F
330
1F
100
AcDbEntity
  8
Sichtbare_Kanten_TC_020513_DIN_
  6
Continuous
 62
     7
100
AcDbPolyline
 90
        2
 70
     0
 43
0.5
 10
117.934739057655
 20
125.1118872333211
 10
118.024739057655
 20
125.1118872333211
  0
LWPOLYLINE
  5
410
330
1F
100
AcDbEntity
  8
Sichtbare_Kanten_TC_020513_DIN_
  6
Continuous
 62
     7
100
AcDbPolyline
 90
        2
 70
     0
 43
0.5
 10
124.684739057655
 20
119.6118872333211
 10
124.684739057655
 20
127.6118872333211
  0
LWPOLYLINE
  5
411
330
1F
100
AcDbEntity
  8
Sichtbare_Kanten_TC_020513_DIN_
  6
Continuous
 62
     7
100
AcDbPolyline
 90
        2
 70
     0
 43
0.5
 10
123.284739057655
 20
119.6118872333211
 10
123.284739057655
 20
127.6118872333211
  0
LWPOLYLINE
  5
412
330
1F
100
AcDbEntity
  8
Sichtbare_Kanten_TC_020513_DIN_
  6
Continuous
 62
     7
100
AcDbPolyline
 90
        2
 70
     0
 43
0.5
 10
118.024739057655
 20
121.1118872333211
 10
118.024739057655
 20
126.1118872333211
  0
LWPOLYLINE
  5
413
330
1F
100
AcDbEntity
  8
Sichtbare_Kanten_TC_020513_DIN_
  6
Continuous
 62
     7
100
AcDbPolyline
 90
        2
 70
     0
 43
0.5
 10
58.08473905765516
 20
121.1118872333211
 10
59.3447390576552
 20
121.1118872333211
  0
LWPOLYLINE
  5
414
330
1F
100
AcDbEntity
  8
Sichtbare_Kanten_TC_020513_DIN_
  6
Continuous
 62
     7
100
AcDbPolyline
 90
        2
 70
     0
 43
0.5
 10
56.08473905765516
 20
121.1118872333211
 10
56.68473905765518
 20
121.1118872333211
  0
LWPOLYLINE
  5
415
330
1F
100
AcDbEntity
  8
Sichtbare_Kanten_TC_020513_DIN_
  6
Continuous
 62
     7
100
AcDbPolyline
 90
        2
 70
     0
 43
0.5
 10
58.08473905765516
 20
126.1118872333211
 10
59.3447390576552
 20
126.1118872333211
  0
LWPOLYLINE
  5
416
330
1F
100
AcDbEntity
  8
Sichtbare_Kanten_TC_020513_DIN_
  6
Continuous
 62
     7
100
AcDbPolyline
 90
        2
 70
     0
 43
0.5
 10
56.08473905765516
 20
126.1118872333211
 10
56.68473905765518
 20
126.1118872333211
  0
LWPOLYLINE
  5
417
330
1F
100
AcDbEntity
  8
Sichtbare_Kanten_TC_020513_DIN_
  6
Continuous
 62
     7
100
AcDbPolyline
 90
        2
 70
     0
 43
0.5
 10
54.08473905765516
 20
121.1118872333211
 10
54.68473905765518
 20
121.1118872333211
  0
LWPOLYLINE
  5
418
330
1F
100
AcDbEntity
  8
Sichtbare_Kanten_TC_020513_DIN_
  6
Continuous
 62
     7
100
AcDbPolyline
 90
        2
 70
     0
 43
0.5
 10
54.08473905765516
 20
126.1118872333211
 10
54.68473905765518
 20
126.1118872333211
  0
LWPOLYLINE
  5
419
330
1F
100
AcDbEntity
  8
Sichtbare_Kanten_TC_020513_DIN_
  6
Continuous
 62
     7
100
AcDbPolyline
 90
        2
 70
     0
 43
0.5
 10
59.3447390576552
 20
122.1118872333211
 10
59.43473905765507
 20
122.1118872333211
  0
LWPOLYLINE
  5
41A
330
1F
100
AcDbEntity
  8
Sichtbare_Kanten_TC_020513_DIN_
  6
Continuous
 62
     7
100
AcDbPolyline
 90
        2
 70
     0
 43
0.5
 10
59.3447390576552
 20
125.1118872333211
 10
59.43473905765507
 20
125.1118872333211
  0
LWPOLYLINE
  5
41B
330
1F
100
AcDbEntity
  8
Sichtbare_Kanten_TC_020513_DIN_
  6
Continuous
 62
     7
100
AcDbPolyline
 90
        2
 70
     0
 43
0.5
 10
52.68473905765518
 20
119.6118872333211
 10
52.68473905765518
 20
127.6118872333211
  0
LWPOLYLINE
  5
41C
330
1F
100
AcDbEntity
  8
Sichtbare_Kanten_TC_020513_DIN_
  6
Continuous
 62
     7
100
AcDbPolyline
 90
        2
 70
     0
 43
0.5
 10
54.08473905765516
 20
119.6118872333211
 10
54.08473905765516
 20
127.6118872333211
  0
LWPOLYLINE
  5
41D
330
1F
100
AcDbEntity
  8
Sichtbare_Kanten_TC_020513_DIN_
  6
Continuous
 62
     7
100
AcDbPolyline
 90
        2
 70
     0
 43
0.5
 10
59.3447390576552
 20
121.1118872333211
 10
59.3447390576552
 20
126.1118872333211
  0
LWPOLYLINE
  5
41E
330
1F
100
AcDbEntity
  8
Sichtbare_Kanten_TC_020513_DIN_
  6
Continuous
 62
     7
100
AcDbPolyline
 90
        2
 70
     0
 43
0.5
 10
117.734739057655
 20
130.6118872333211
 10
111.934739057655
 20
130.6118872333211
  0
LWPOLYLINE
  5
41F
330
1F
100
AcDbEntity
  8
Sichtbare_Kanten_TC_020513_DIN_
  6
Continuous
 62
     7
100
AcDbPolyline
 90
        2
 70
     0
 43
0.5
 10
117.734739057655
 20
130.6118872333211
 10
117.734739057655
 20
126.6118872333211
  0
LWPOLYLINE
  5
420
330
1F
100
AcDbEntity
  8
Sichtbare_Kanten_TC_020513_DIN_
  6
Continuous
 62
     7
100
AcDbPolyline
 90
        2
 70
     0
 43
0.5
 10
108.129544279078
 20
130.6118872333211
 10
111.934739057655
 20
130.6118872333211
  0
LWPOLYLINE
  5
421
330
1F
100
AcDbEntity
  8
Sichtbare_Kanten_TC_020513_DIN_
  6
Continuous
 62
     7
100
AcDbPolyline
 90
        2
 70
     0
 43
0.5
 10
65.43473905765518
 20
130.6118872333211
 10
69.23993383623207
 20
130.6118872333211
  0
LWPOLYLINE
  5
422
330
1F
100
AcDbEntity
  8
Sichtbare_Kanten_TC_020513_DIN_
  6
Continuous
 62
     7
100
AcDbPolyline
 90
        2
 70
     0
 43
0.5
 10
65.43473905765518
 20
130.6118872333211
 10
59.63473905765517
 20
130.6118872333211
  0
LWPOLYLINE
  5
423
330
1F
100
AcDbEntity
  8
Sichtbare_Kanten_TC_020513_DIN_
  6
Continuous
 62
     7
100
AcDbPolyline
 90
        2
 70
     0
 43
0.5
 10
59.63473905765517
 20
130.6118872333211
 10
59.63473905765517
 20
126.6118872333211
  0
LWPOLYLINE
  5
424
330
1F
100
AcDbEntity
  8
Sichtbare_Kanten_TC_020513_DIN_
  6
Continuous
 62
     7
100
AcDbPolyline
 90
        2
 70
     0
 43
0.5
 10
70.27516257065179
 20
126.6118872333211
 10
65.43473905765518
 20
126.6118872333211
  0
LWPOLYLINE
  5
425
330
1F
100
AcDbEntity
  8
Sichtbare_Kanten_TC_020513_DIN_
  6
Continuous
 62
     7
100
AcDbPolyline
 90
        2
 70
     0
 43
0.5
 10
111.934739057655
 20
126.6118872333211
 10
107.094315544659
 20
126.6118872333211
  0
LWPOLYLINE
  5
426
330
1F
100
AcDbEntity
  8
Sichtbare_Kanten_TC_020513_DIN_
  6
Continuous
 62
     7
100
AcDbPolyline
 90
        2
 70
     0
 43
0.5
 10
111.934739057655
 20
126.6118872333211
 10
117.934739057655
 20
126.6118872333211
  0
LWPOLYLINE
  5
427
330
1F
100
AcDbEntity
  8
Sichtbare_Kanten_TC_020513_DIN_
  6
Continuous
 62
     7
100
AcDbPolyline
 90
        2
 70
     0
 43
0.5
 10
59.43473905765518
 20
126.6118872333211
 10
65.43473905765518
 20
126.6118872333211
  0
LWPOLYLINE
  5
428
330
1F
100
AcDbEntity
  8
Sichtbare_Kanten_TC_020513_DIN_
  6
Continuous
 62
     7
100
AcDbPolyline
 90
        2
 70
     0
 43
0.5
 10
59.43473905765518
 20
112.7952499307301
 10
59.43473905765518
 20
126.6118872333211
  0
LWPOLYLINE
  5
429
330
1F
100
AcDbEntity
  8
Sichtbare_Kanten_TC_020513_DIN_
  6
Continuous
 62
     7
100
AcDbPolyline
 90
        2
 70
     0
 43
0.5
 10
59.43473905765518
 20
81.611887233321
 10
59.43473905765518
 20
111.3952499307301
  0
LWPOLYLINE
  5
42A
330
1F
100
AcDbEntity
  8
Sichtbare_Kanten_TC_020513_DIN_
  6
Continuous
 62
     7
100
AcDbPolyline
 90
        2
 70
     0
 43
0.5
 10
117.934739057655
 20
112.7952499307301
 10
117.934739057655
 20
126.6118872333211
  0
LWPOLYLINE
  5
42B
330
1F
100
AcDbEntity
  8
Sichtbare_Kanten_TC_020513_DIN_
  6
Continuous
 62
     7
100
AcDbPolyline
 90
        2
 70
     0
 43
0.5
 10
117.934739057655
 20
81.611887233321
 10
117.934739057655
 20
111.3952499307301
  0
LWPOLYLINE
  5
42C
330
1F
100
AcDbEntity
  8
Sichtbare_Kanten_TC_020513_DIN_
  6
Continuous
 62
     7
100
AcDbPolyline
 90
        2
 70
     0
 43
0.5
 10
129.684739057655
 20
106.5218872333211
 10
117.934739057655
 20
106.5218872333211
  0
LWPOLYLINE
  5
42D
330
1F
100
AcDbEntity
  8
Sichtbare_Kanten_TC_020513_DIN_
  6
Continuous
 62
     7
100
AcDbPolyline
 90
        2
 70
     0
 43
0.5
 10
129.684739057655
 20
94.1918872333211
 10
129.684739057655
 20
82.44988723332109
  0
LWPOLYLINE
  5
42E
330
1F
100
AcDbEntity
  8
Sichtbare_Kanten_TC_020513_DIN_
  6
Continuous
 62
     7
100
AcDbPolyline
 90
        2
 70
     0
 43
0.5
 10
129.684739057655
 20
94.1918872333211
 10
129.684739057655
 20
105.9338872333211
  0
LWPOLYLINE
  5
42F
330
1F
100
AcDbEntity
  8
Sichtbare_Kanten_TC_020513_DIN_
  6
Continuous
 62
     7
100
AcDbPolyline
 90
        2
 70
     0
 43
0.5
 10
47.68473905765518
 20
77.611887233321
 10
47.68473905765518
 20
81.611887233321
  0
LWPOLYLINE
  5
430
330
1F
100
AcDbEntity
  8
Sichtbare_Kanten_TC_020513_DIN_
  6
Continuous
 62
     7
100
AcDbPolyline
 90
        2
 70
     0
 43
0.5
 10
56.68473905765518
 20
77.611887233321
 10
56.68473905765518
 20
81.611887233321
  0
LWPOLYLINE
  5
431
330
1F
100
AcDbEntity
  8
Sichtbare_Kanten_TC_020513_DIN_
  6
Continuous
 62
     7
100
AcDbPolyline
 90
        2
 70
     0
 43
0.5
 10
66.68473905765518
 20
77.611887233321
 10
66.68473905765518
 20
81.611887233321
  0
LWPOLYLINE
  5
432
330
1F
100
AcDbEntity
  8
Sichtbare_Kanten_TC_020513_DIN_
  6
Continuous
 62
     7
100
AcDbPolyline
 90
        2
 70
     0
 43
0.5
 10
110.684739057655
 20
77.611887233321
 10
110.684739057655
 20
81.611887233321
  0
LWPOLYLINE
  5
433
330
1F
100
AcDbEntity
  8
Sichtbare_Kanten_TC_020513_DIN_
  6
Continuous
 62
     7
100
AcDbPolyline
 90
        2
 70
     0
 43
0.5
 10
120.684739057655
 20
77.611887233321
 10
120.684739057655
 20
81.611887233321
  0
LWPOLYLINE
  5
434
330
1F
100
AcDbEntity
  8
Sichtbare_Kanten_TC_020513_DIN_
  6
Continuous
 62
     7
100
AcDbPolyline
 90
        2
 70
     0
 43
0.5
 10
129.684739057655
 20
81.611887233321
 10
120.684739057655
 20
81.611887233321
  0
LWPOLYLINE
  5
435
330
1F
100
AcDbEntity
  8
Sichtbare_Kanten_TC_020513_DIN_
  6
Continuous
 62
     7
100
AcDbPolyline
 90
        2
 70
     0
 43
0.5
 10
120.684739057655
 20
81.611887233321
 10
110.684739057655
 20
81.611887233321
  0
LWPOLYLINE
  5
436
330
1F
100
AcDbEntity
  8
Sichtbare_Kanten_TC_020513_DIN_
  6
Continuous
 62
     7
100
AcDbPolyline
 90
        2
 70
     0
 43
0.5
 10
129.684739057655
 20
77.611887233321
 10
129.684739057655
 20
81.611887233321
  0
LWPOLYLINE
  5
437
330
1F
100
AcDbEntity
  8
Sichtbare_Kanten_TC_020513_DIN_
  6
Continuous
 62
     7
100
AcDbPolyline
 90
        2
 70
     0
 43
0.5
 10
66.68473905765518
 20
81.611887233321
 10
56.68473905765518
 20
81.611887233321
  0
LWPOLYLINE
  5
438
330
1F
100
AcDbEntity
  8
Sichtbare_Kanten_TC_020513_DIN_
  6
Continuous
 62
     7
100
AcDbPolyline
 90
        2
 70
     0
 43
0.5
 10
56.68473905765518
 20
81.611887233321
 10
47.68473905765518
 20
81.611887233321
  0
LWPOLYLINE
  5
439
330
1F
100
AcDbEntity
  8
Sichtbare_Kanten_TC_020513_DIN_
  6
Continuous
 62
     7
100
AcDbPolyline
 90
        2
 70
     0
 43
0.5
 10
56.68473905765518
 20
77.611887233321
 10
47.68473905765518
 20
77.611887233321
  0
LWPOLYLINE
  5
43A
330
1F
100
AcDbEntity
  8
Sichtbare_Kanten_TC_020513_DIN_
  6
Continuous
 62
     7
100
AcDbPolyline
 90
        2
 70
     0
 43
0.5
 10
66.68473905765518
 20
77.611887233321
 10
56.68473905765518
 20
77.611887233321
  0
LWPOLYLINE
  5
43B
330
1F
100
AcDbEntity
  8
Sichtbare_Kanten_TC_020513_DIN_
  6
Continuous
 62
     7
100
AcDbPolyline
 90
        2
 70
     0
 43
0.5
 10
110.684739057655
 20
77.611887233321
 10
66.68473905765518
 20
77.611887233321
  0
LWPOLYLINE
  5
43C
330
1F
100
AcDbEntity
  8
Sichtbare_Kanten_TC_020513_DIN_
  6
Continuous
 62
     7
100
AcDbPolyline
 90
        2
 70
     0
 43
0.5
 10
120.684739057655
 20
77.611887233321
 10
110.684739057655
 20
77.611887233321
  0
LWPOLYLINE
  5
43D
330
1F
100
AcDbEntity
  8
Sichtbare_Kanten_TC_020513_DIN_
  6
Continuous
 62
     7
100
AcDbPolyline
 90
        2
 70
     0
 43
0.5
 10
129.684739057655
 20
77.611887233321
 10
120.684739057655
 20
77.611887233321
  0
LWPOLYLINE
  5
43E
330
1F
100
AcDbEntity
  8
Sichtbare_Kanten_TC_020513_DIN_
  6
Continuous
 62
     7
100
AcDbPolyline
 90
        2
 70
     0
 43
0.5
 10
59.43473905765518
 20
106.5218872333211
 10
47.68473905765518
 20
106.5218872333211
  0
LWPOLYLINE
  5
43F
330
1F
100
AcDbEntity
  8
Sichtbare_Kanten_TC_020513_DIN_
  6
Continuous
 62
     7
100
AcDbPolyline
 90
        2
 70
     0
 43
0.5
 10
47.68473905765518
 20
94.1918872333211
 10
47.68473905765518
 20
106.5218872333211
  0
LWPOLYLINE
  5
440
330
1F
100
AcDbEntity
  8
Sichtbare_Kanten_TC_020513_DIN_
  6
Continuous
 62
     7
100
AcDbPolyline
 90
        2
 70
     0
 43
0.5
 10
47.68473905765518
 20
94.1918872333211
 10
47.68473905765518
 20
81.611887233321
  0
LWPOLYLINE
  5
441
330
1F
100
AcDbEntity
  8
Sichtbare_Kanten_TC_020513_DIN_
  6
Continuous
 62
     7
100
AcDbPolyline
 90
        2
 70
     0
 43
0.5
 10
120.684739057655
 20
141.4081288175121
 10
120.684739057655
 20
130.9728725683161
  0
LWPOLYLINE
  5
442
330
1F
100
AcDbEntity
  8
Sichtbare_Kanten_TC_020513_DIN_
  6
Continuous
 62
     7
100
AcDbPolyline
 90
        2
 70
     0
 43
0.5
 10
120.684739057655
 20
130.9728725683161
 10
117.884739057655
 20
130.9728725683161
  0
LWPOLYLINE
  5
443
330
1F
100
AcDbEntity
  8
Sichtbare_Kanten_TC_020513_DIN_
  6
Continuous
 62
     7
100
AcDbPolyline
 90
        2
 70
     0
 43
0.5
 10
117.884739057655
 20
140.9728725683161
 10
120.253799585999
 20
140.9728725683161
  0
LWPOLYLINE
  5
444
330
1F
100
AcDbEntity
  8
Sichtbare_Kanten_TC_020513_DIN_
  6
Continuous
 62
     7
100
AcDbPolyline
 90
        2
 70
     0
 43
0.5
 10
119.284739057655
 20
141.4081288175121
 10
119.900740970435
 20
141.4081288175121
  0
LWPOLYLINE
  5
445
330
1F
100
AcDbEntity
  8
Sichtbare_Kanten_TC_020513_DIN_
  6
Continuous
 62
     7
100
AcDbPolyline
 90
        2
 70
     0
 43
0.5
 10
119.900740970435
 20
141.4081288175121
 10
120.684739057655
 20
141.4081288175121
  0
LWPOLYLINE
  5
446
330
1F
100
AcDbEntity
  8
Sichtbare_Kanten_TC_020513_DIN_
  6
Continuous
 62
     7
100
AcDbPolyline
 90
        2
 70
     0
 43
0.5
 10
107.572521413181
 20
128.2293644069451
 10
107.572521413181
 20
128.5606954958281
  0
LWPOLYLINE
  5
447
330
1F
100
AcDbEntity
  8
Sichtbare_Kanten_TC_020513_DIN_
  6
Continuous
 62
     7
100
AcDbPolyline
 90
        2
 70
     0
 43
0.5
 10
107.572521413181
 20
128.5606954958281
 10
107.572521413181
 20
128.8210299733821
  0
LWPOLYLINE
  5
448
330
1F
100
AcDbEntity
  8
Sichtbare_Kanten_TC_020513_DIN_
  6
Continuous
 62
     7
100
AcDbPolyline
 90
        2
 70
     0
 43
0.5
 10
106.306952132137
 20
140.7895098709071
 10
106.306952132137
 20
141.4055110011881
  0
LWPOLYLINE
  5
449
330
1F
100
AcDbEntity
  8
Sichtbare_Kanten_TC_020513_DIN_
  6
Continuous
 62
     7
100
AcDbPolyline
 90
        2
 70
     0
 43
0.5
 10
106.306952132137
 20
141.4055110011881
 10
106.306952132137
 20
142.1895098709071
  0
LWPOLYLINE
  5
44A
330
1F
100
AcDbEntity
  8
Sichtbare_Kanten_TC_020513_DIN_
  6
Continuous
 62
     7
100
AcDbPolyline
 90
        2
 70
     0
 43
0.5
 10
71.06252598317297
 20
142.1895098709071
 10
71.06252598317297
 20
141.4055110011881
  0
LWPOLYLINE
  5
44B
330
1F
100
AcDbEntity
  8
Sichtbare_Kanten_TC_020513_DIN_
  6
Continuous
 62
     7
100
AcDbPolyline
 90
        2
 70
     0
 43
0.5
 10
71.06252598317297
 20
141.4055110011881
 10
71.06252598317297
 20
140.7895098709071
  0
LWPOLYLINE
  5
44C
330
1F
100
AcDbEntity
  8
Sichtbare_Kanten_TC_020513_DIN_
  6
Continuous
 62
     7
100
AcDbPolyline
 90
        2
 70
     0
 43
0.5
 10
57.1156785293116
 20
140.9728725683161
 10
59.48473905765519
 20
140.9728725683161
  0
LWPOLYLINE
  5
44D
330
1F
100
AcDbEntity
  8
Sichtbare_Kanten_TC_020513_DIN_
  6
Continuous
 62
     7
100
AcDbPolyline
 90
        2
 70
     0
 43
0.5
 10
59.48473905765519
 20
130.9728725683161
 10
56.68473905765518
 20
130.9728725683161
  0
LWPOLYLINE
  5
44E
330
1F
100
AcDbEntity
  8
Sichtbare_Kanten_TC_020513_DIN_
  6
Continuous
 62
     7
100
AcDbPolyline
 90
        2
 70
     0
 43
0.5
 10
56.68473905765518
 20
141.4081288175121
 10
57.46873714487521
 20
141.4081288175121
  0
LWPOLYLINE
  5
44F
330
1F
100
AcDbEntity
  8
Sichtbare_Kanten_TC_020513_DIN_
  6
Continuous
 62
     7
100
AcDbPolyline
 90
        2
 70
     0
 43
0.5
 10
57.46873714487521
 20
141.4081288175121
 10
58.08473905765516
 20
141.4081288175121
  0
LWPOLYLINE
  5
450
330
1F
100
AcDbEntity
  8
Sichtbare_Kanten_TC_020513_DIN_
  6
Continuous
 62
     7
100
AcDbPolyline
 90
        2
 70
     0
 43
0.5
 10
56.68473905765518
 20
130.9728725683161
 10
56.68473905765518
 20
141.4081288175121
  0
LWPOLYLINE
  5
451
330
1F
100
AcDbEntity
  8
Sichtbare_Kanten_TC_020513_DIN_
  6
Continuous
 62
     7
100
AcDbPolyline
 90
        2
 70
     0
 43
0.5
 10
69.7969567021297
 20
128.8210299733821
 10
69.7969567021297
 20
128.5606954958291
  0
LWPOLYLINE
  5
452
330
1F
100
AcDbEntity
  8
Sichtbare_Kanten_TC_020513_DIN_
  6
Continuous
 62
     7
100
AcDbPolyline
 90
        2
 70
     0
 43
0.5
 10
69.7969567021297
 20
128.5606954958291
 10
69.7969567021297
 20
128.2293644069451
  0
LWPOLYLINE
  5
453
330
1F
100
AcDbEntity
  8
Sichtbare_Kanten_TC_020513_DIN_
  6
Continuous
 62
     7
100
AcDbPolyline
 90
        2
 70
     0
 43
0.5
 10
104.0121241078
 20
121.3775170946421
 10
73.3573540075098
 20
121.3775170946421
  0
LWPOLYLINE
  5
454
330
1F
100
AcDbEntity
  8
Sichtbare_Kanten_TC_020513_DIN_
  6
Continuous
 62
     7
100
AcDbPolyline
 90
        2
 70
     0
 43
0.5
 10
73.3573540075098
 20
121.9691826610791
 10
104.012124107801
 20
121.9691826610791
  0
LWPOLYLINE
  5
455
330
1F
100
AcDbEntity
  8
Sichtbare_Kanten_TC_020513_DIN_
  6
Continuous
 62
     7
100
AcDbPolyline
 90
        2
 70
     0
 43
0.5
 10
103.052965372827
 20
142.1895098709071
 10
74.3165127424835
 20
142.1895098709071
  0
LWPOLYLINE
  5
456
330
1F
100
AcDbEntity
  8
Sichtbare_Kanten_TC_020513_DIN_
  6
Continuous
 62
     7
100
AcDbPolyline
 90
        2
 70
     0
 43
0.5
 10
103.052965372827
 20
140.7895098709071
 10
74.3165127424835
 20
140.7895098709071
  0
LWPOLYLINE
  5
457
330
1F
100
AcDbEntity
  8
Sichtbare_Kanten_TC_020513_DIN_
  6
Continuous
 62
     7
100
AcDbPolyline
 90
        2
 70
     0
 43
0.5
 10
71.42550235493167
 20
123.3126588031331
 10
69.7969567021297
 20
128.8210299733821
  0
LWPOLYLINE
  5
458
330
1F
100
AcDbEntity
  8
Sichtbare_Kanten_TC_020513_DIN_
  6
Continuous
 62
     7
100
AcDbPolyline
 90
        2
 70
     0
 43
0.5
 10
69.7969567021297
 20
128.2293644069451
 10
71.42550235493167
 20
122.7209932366961
  0
LWPOLYLINE
  5
459
330
1F
100
AcDbEntity
  8
Sichtbare_Kanten_TC_020513_DIN_
  6
Continuous
 62
     7
100
AcDbPolyline
 90
        2
 70
     0
 43
0.5
 10
53.64708414264777
 20
113.3742323183131
 10
53.64708414264771
 20
111.9742323183131
  0
LWPOLYLINE
  5
45A
330
1F
100
AcDbEntity
  8
Sichtbare_Kanten_TC_020513_DIN_
  6
Continuous
 62
     7
100
AcDbPolyline
 90
        2
 70
     0
 43
0.5
 10
53.64708414264777
 20
113.3742323183131
 10
54.14708414264777
 20
113.3742323183131
  0
LWPOLYLINE
  5
45B
330
1F
100
AcDbEntity
  8
Sichtbare_Kanten_TC_020513_DIN_
  6
Continuous
 62
     7
100
AcDbPolyline
 90
        2
 70
     0
 43
0.5
 10
54.14708414264777
 20
111.9742323183131
 10
53.64708414264771
 20
111.9742323183131
  0
LWPOLYLINE
  5
45C
330
1F
100
AcDbEntity
  8
Sichtbare_Kanten_TC_020513_DIN_
  6
Continuous
 62
     7
100
AcDbPolyline
 90
        2
 70
     0
 43
0.5
 10
54.14708414264777
 20
111.9742323183131
 10
54.68473905765518
 20
111.9742323183131
  0
LWPOLYLINE
  5
45D
330
1F
100
AcDbEntity
  8
Sichtbare_Kanten_TC_020513_DIN_
  6
Continuous
 62
     7
100
AcDbPolyline
 90
        2
 70
     0
 43
0.5
 10
54.68473905765518
 20
113.3742323183131
 10
54.14708414264777
 20
113.3742323183131
  0
LWPOLYLINE
  5
45E
330
1F
100
AcDbEntity
  8
Sichtbare_Kanten_TC_020513_DIN_
  6
Continuous
 62
     7
100
AcDbPolyline
 90
        2
 70
     0
 43
0.5
 10
56.58473905765516
 20
113.3742323183131
 10
56.35075048623941
 20
113.3742323183131
  0
LWPOLYLINE
  5
45F
330
1F
100
AcDbEntity
  8
Sichtbare_Kanten_TC_020513_DIN_
  6
Continuous
 62
     7
100
AcDbPolyline
 90
        2
 70
     0
 43
0.5
 10
72.38466108990536
 20
142.1895098709071
 10
71.06252598317297
 20
142.1895098709071
  0
LWPOLYLINE
  5
460
330
1F
100
AcDbEntity
  8
Sichtbare_Kanten_TC_020513_DIN_
  6
Continuous
 62
     7
100
AcDbPolyline
 90
        2
 70
     0
 43
0.5
 10
71.06252598317297
 20
140.7895098709071
 10
72.38466108990536
 20
140.7895098709071
  0
LWPOLYLINE
  5
461
330
1F
100
AcDbEntity
  8
Sichtbare_Kanten_TC_020513_DIN_
  6
Continuous
 62
     7
100
AcDbPolyline
 90
        2
 70
     0
 43
0.5
 10
74.3165127424835
 20
140.7895098709071
 10
72.38466108990536
 20
140.7895098709071
  0
LWPOLYLINE
  5
462
330
1F
100
AcDbEntity
  8
Sichtbare_Kanten_TC_020513_DIN_
  6
Continuous
 62
     7
100
AcDbPolyline
 90
        2
 70
     0
 43
0.5
 10
72.38466108990536
 20
142.1895098709071
 10
74.3165127424835
 20
142.1895098709071
  0
LWPOLYLINE
  5
463
330
1F
100
AcDbEntity
  8
Sichtbare_Kanten_TC_020513_DIN_
  6
Continuous
 62
     7
100
AcDbPolyline
 90
        2
 70
     0
 43
0.5
 10
56.68473905765518
 20
148.6118872333211
 10
58.08473905765516
 20
148.6118872333211
  0
LWPOLYLINE
  5
464
330
1F
100
AcDbEntity
  8
Sichtbare_Kanten_TC_020513_DIN_
  6
Continuous
 62
     7
100
AcDbPolyline
 90
        2
 70
     0
 43
0.5
 10
56.68473905765518
 20
113.6118872333211
 10
58.08473905765516
 20
113.6118872333211
  0
LWPOLYLINE
  5
465
330
1F
100
AcDbEntity
  8
Sichtbare_Kanten_TC_020513_DIN_
  6
Continuous
 62
     7
100
AcDbPolyline
 90
        2
 70
     0
 43
0.5
 10
58.08473905765516
 20
113.4742323183131
 10
58.08473905765516
 20
113.6118872333211
  0
LWPOLYLINE
  5
466
330
1F
100
AcDbEntity
  8
Sichtbare_Kanten_TC_020513_DIN_
  6
Continuous
 62
     7
100
AcDbPolyline
 90
        2
 70
     0
 43
0.5
 10
58.08473905765516
 20
121.8274855485921
 10
58.08473905765516
 20
113.6118872333211
  0
LWPOLYLINE
  5
467
330
1F
100
AcDbEntity
  8
Sichtbare_Kanten_TC_020513_DIN_
  6
Continuous
 62
     7
100
AcDbPolyline
 90
        2
 70
     0
 43
0.5
 10
58.08473905765516
 20
121.8274855485921
 10
58.08473905765516
 20
126.6554651046951
  0
LWPOLYLINE
  5
468
330
1F
100
AcDbEntity
  8
Sichtbare_Kanten_TC_020513_DIN_
  6
Continuous
 62
     7
100
AcDbPolyline
 90
        2
 70
     0
 43
0.5
 10
58.08473905765516
 20
126.6554651046951
 10
58.08473905765516
 20
127.0040369964141
  0
LWPOLYLINE
  5
469
330
1F
100
AcDbEntity
  8
Sichtbare_Kanten_TC_020513_DIN_
  6
Continuous
 62
     7
100
AcDbPolyline
 90
        2
 70
     0
 43
0.5
 10
58.08473905765516
 20
127.0040369964141
 10
58.08473905765516
 20
130.9728725683161
  0
LWPOLYLINE
  5
46A
330
1F
100
AcDbEntity
  8
Sichtbare_Kanten_TC_020513_DIN_
  6
Continuous
 62
     7
100
AcDbPolyline
 90
        2
 70
     0
 43
0.5
 10
58.08473905765516
 20
141.4081288175121
 10
58.08473905765516
 20
143.4553485021111
  0
LWPOLYLINE
  5
46B
330
1F
100
AcDbEntity
  8
Sichtbare_Kanten_TC_020513_DIN_
  6
Continuous
 62
     7
100
AcDbPolyline
 90
        2
 70
     0
 43
0.5
 10
58.08473905765516
 20
148.6118872333211
 10
58.08473905765516
 20
143.4553485021111
  0
LWPOLYLINE
  5
46C
330
1F
100
AcDbEntity
  8
Sichtbare_Kanten_TC_020513_DIN_
  6
Continuous
 62
     7
100
AcDbPolyline
 90
        2
 70
     0
 43
0.5
 10
56.68473905765518
 20
143.4553485021111
 10
56.68473905765518
 20
148.6118872333211
  0
LWPOLYLINE
  5
46D
330
1F
100
AcDbEntity
  8
Sichtbare_Kanten_TC_020513_DIN_
  6
Continuous
 62
     7
100
AcDbPolyline
 90
        2
 70
     0
 43
0.5
 10
56.68473905765518
 20
143.4553485021111
 10
56.68473905765518
 20
141.4081288175121
  0
LWPOLYLINE
  5
46E
330
1F
100
AcDbEntity
  8
Sichtbare_Kanten_TC_020513_DIN_
  6
Continuous
 62
     7
100
AcDbPolyline
 90
        2
 70
     0
 43
0.5
 10
56.68473905765518
 20
130.9728725683161
 10
56.68473905765518
 20
127.0040369964141
  0
LWPOLYLINE
  5
46F
330
1F
100
AcDbEntity
  8
Sichtbare_Kanten_TC_020513_DIN_
  6
Continuous
 62
     7
100
AcDbPolyline
 90
        2
 70
     0
 43
0.5
 10
56.68473905765518
 20
127.0040369964141
 10
56.68473905765518
 20
126.6554651046951
  0
LWPOLYLINE
  5
470
330
1F
100
AcDbEntity
  8
Sichtbare_Kanten_TC_020513_DIN_
  6
Continuous
 62
     7
100
AcDbPolyline
 90
        2
 70
     0
 43
0.5
 10
56.68473905765518
 20
126.6554651046951
 10
56.68473905765518
 20
121.8274855485921
  0
LWPOLYLINE
  5
471
330
1F
100
AcDbEntity
  8
Sichtbare_Kanten_TC_020513_DIN_
  6
Continuous
 62
     7
100
AcDbPolyline
 90
        2
 70
     0
 43
0.5
 10
56.68473905765518
 20
113.6118872333211
 10
56.68473905765518
 20
121.8274855485921
  0
LWPOLYLINE
  5
472
330
1F
100
AcDbEntity
  8
Sichtbare_Kanten_TC_020513_DIN_
  6
Continuous
 62
     7
100
AcDbPolyline
 90
        2
 70
     0
 43
0.5
 10
56.68473905765518
 20
113.6118872333211
 10
56.68473905765518
 20
113.4742323183131
  0
LWPOLYLINE
  5
473
330
1F
100
AcDbEntity
  8
Sichtbare_Kanten_TC_020513_DIN_
  6
Continuous
 62
     7
100
AcDbPolyline
 90
        2
 70
     0
 43
0.5
 10
69.5612562820761
 20
129.4126955398191
 10
69.19285781681822
 20
130.7875773295921
  0
LWPOLYLINE
  5
474
330
1F
100
AcDbEntity
  8
Sichtbare_Kanten_TC_020513_DIN_
  6
Continuous
 62
     7
100
AcDbPolyline
 90
        2
 70
     0
 43
0.5
 10
68.95137636024589
 20
130.9728725683161
 10
59.48473905765519
 20
130.9728725683161
  0
LWPOLYLINE
  5
475
330
1F
100
AcDbEntity
  8
Sichtbare_Kanten_TC_020513_DIN_
  6
Continuous
 62
     7
100
AcDbPolyline
 90
        2
 70
     0
 43
0.5
 10
59.48473905765519
 20
140.9728725683161
 10
61.45137636024589
 20
140.9728725683161
  0
LWPOLYLINE
  5
476
330
1F
100
AcDbEntity
  8
Sichtbare_Kanten_TC_020513_DIN_
  6
Continuous
 62
     7
100
AcDbPolyline
 90
        2
 70
     0
 43
0.5
 10
62.21742080336492
 20
140.6156601780021
 10
63.2961464957915
 20
139.3300849586291
  0
LWPOLYLINE
  5
477
330
1F
100
AcDbEntity
  8
Sichtbare_Kanten_TC_020513_DIN_
  6
Continuous
 62
     7
100
AcDbPolyline
 90
        2
 70
     0
 43
0.5
 10
64.06219093891048
 20
138.9728725683161
 10
68.95137636024589
 20
138.9728725683161
  0
LWPOLYLINE
  5
478
330
1F
100
AcDbEntity
  8
Sichtbare_Kanten_TC_020513_DIN_
  6
Continuous
 62
     7
100
AcDbPolyline
 90
        2
 70
     0
 43
0.5
 10
107.572521413181
 20
128.2293644069451
 10
105.943975760379
 20
122.7209932366961
  0
LWPOLYLINE
  5
479
330
1F
100
AcDbEntity
  8
Sichtbare_Kanten_TC_020513_DIN_
  6
Continuous
 62
     7
100
AcDbPolyline
 90
        2
 70
     0
 43
0.5
 10
123.722393972663
 20
113.3742323183131
 10
123.722393972663
 20
111.9742323183131
  0
LWPOLYLINE
  5
47A
330
1F
100
AcDbEntity
  8
Sichtbare_Kanten_TC_020513_DIN_
  6
Continuous
 62
     7
100
AcDbPolyline
 90
        2
 70
     0
 43
0.5
 10
123.222393972662
 20
111.9742323183131
 10
123.722393972663
 20
111.9742323183131
  0
LWPOLYLINE
  5
47B
330
1F
100
AcDbEntity
  8
Sichtbare_Kanten_TC_020513_DIN_
  6
Continuous
 62
     7
100
AcDbPolyline
 90
        2
 70
     0
 43
0.5
 10
123.222393972662
 20
111.9742323183131
 10
122.684739057655
 20
111.9742323183131
  0
LWPOLYLINE
  5
47C
330
1F
100
AcDbEntity
  8
Sichtbare_Kanten_TC_020513_DIN_
  6
Continuous
 62
     7
100
AcDbPolyline
 90
        2
 70
     0
 43
0.5
 10
123.722393972663
 20
113.3742323183131
 10
123.222393972662
 20
113.3742323183131
  0
LWPOLYLINE
  5
47D
330
1F
100
AcDbEntity
  8
Sichtbare_Kanten_TC_020513_DIN_
  6
Continuous
 62
     7
100
AcDbPolyline
 90
        2
 70
     0
 43
0.5
 10
122.684739057655
 20
113.3742323183131
 10
123.222393972662
 20
113.3742323183131
  0
LWPOLYLINE
  5
47E
330
1F
100
AcDbEntity
  8
Sichtbare_Kanten_TC_020513_DIN_
  6
Continuous
 62
     7
100
AcDbPolyline
 90
        2
 70
     0
 43
0.5
 10
120.784739057655
 20
113.3742323183131
 10
121.018727629071
 20
113.3742323183131
  0
LWPOLYLINE
  5
47F
330
1F
100
AcDbEntity
  8
Sichtbare_Kanten_TC_020513_DIN_
  6
Continuous
 62
     7
100
AcDbPolyline
 90
        2
 70
     0
 43
0.5
 10
120.684739057655
 20
148.6118872333211
 10
119.284739057655
 20
148.6118872333211
  0
LWPOLYLINE
  5
480
330
1F
100
AcDbEntity
  8
Sichtbare_Kanten_TC_020513_DIN_
  6
Continuous
 62
     7
100
AcDbPolyline
 90
        2
 70
     0
 43
0.5
 10
120.684739057655
 20
113.6118872333211
 10
119.284739057655
 20
113.6118872333211
  0
LWPOLYLINE
  5
481
330
1F
100
AcDbEntity
  8
Sichtbare_Kanten_TC_020513_DIN_
  6
Continuous
 62
     7
100
AcDbPolyline
 90
        2
 70
     0
 43
0.5
 10
119.284739057655
 20
127.0040369964141
 10
119.284739057655
 20
130.9728725683161
  0
LWPOLYLINE
  5
482
330
1F
100
AcDbEntity
  8
Sichtbare_Kanten_TC_020513_DIN_
  6
Continuous
 62
     7
100
AcDbPolyline
 90
        2
 70
     0
 43
0.5
 10
119.284739057655
 20
126.6554651046951
 10
119.284739057655
 20
127.0040369964141
  0
LWPOLYLINE
  5
483
330
1F
100
AcDbEntity
  8
Sichtbare_Kanten_TC_020513_DIN_
  6
Continuous
 62
     7
100
AcDbPolyline
 90
        2
 70
     0
 43
0.5
 10
119.284739057655
 20
121.8274855485921
 10
119.284739057655
 20
126.6554651046951
  0
LWPOLYLINE
  5
484
330
1F
100
AcDbEntity
  8
Sichtbare_Kanten_TC_020513_DIN_
  6
Continuous
 62
     7
100
AcDbPolyline
 90
        2
 70
     0
 43
0.5
 10
119.284739057655
 20
121.8274855485921
 10
119.284739057655
 20
113.6118872333211
  0
LWPOLYLINE
  5
485
330
1F
100
AcDbEntity
  8
Sichtbare_Kanten_TC_020513_DIN_
  6
Continuous
 62
     7
100
AcDbPolyline
 90
        2
 70
     0
 43
0.5
 10
119.284739057655
 20
113.4742323183131
 10
119.284739057655
 20
113.6118872333211
  0
LWPOLYLINE
  5
486
330
1F
100
AcDbEntity
  8
Sichtbare_Kanten_TC_020513_DIN_
  6
Continuous
 62
     7
100
AcDbPolyline
 90
        2
 70
     0
 43
0.5
 10
119.284739057655
 20
148.6118872333211
 10
119.284739057655
 20
143.4553485021111
  0
LWPOLYLINE
  5
487
330
1F
100
AcDbEntity
  8
Sichtbare_Kanten_TC_020513_DIN_
  6
Continuous
 62
     7
100
AcDbPolyline
 90
        2
 70
     0
 43
0.5
 10
120.684739057655
 20
143.4553485021111
 10
120.684739057655
 20
148.6118872333211
  0
LWPOLYLINE
  5
488
330
1F
100
AcDbEntity
  8
Sichtbare_Kanten_TC_020513_DIN_
  6
Continuous
 62
     7
100
AcDbPolyline
 90
        2
 70
     0
 43
0.5
 10
120.684739057655
 20
113.6118872333211
 10
120.684739057655
 20
113.4742323183131
  0
LWPOLYLINE
  5
489
330
1F
100
AcDbEntity
  8
Sichtbare_Kanten_TC_020513_DIN_
  6
Continuous
 62
     7
100
AcDbPolyline
 90
        2
 70
     0
 43
0.5
 10
120.684739057655
 20
113.6118872333211
 10
120.684739057655
 20
121.8274855485921
  0
LWPOLYLINE
  5
48A
330
1F
100
AcDbEntity
  8
Sichtbare_Kanten_TC_020513_DIN_
  6
Continuous
 62
     7
100
AcDbPolyline
 90
        2
 70
     0
 43
0.5
 10
120.684739057655
 20
126.6554651046951
 10
120.684739057655
 20
121.8274855485921
  0
LWPOLYLINE
  5
48B
330
1F
100
AcDbEntity
  8
Sichtbare_Kanten_TC_020513_DIN_
  6
Continuous
 62
     7
100
AcDbPolyline
 90
        2
 70
     0
 43
0.5
 10
120.684739057655
 20
127.0040369964141
 10
120.684739057655
 20
126.6554651046951
  0
LWPOLYLINE
  5
48C
330
1F
100
AcDbEntity
  8
Sichtbare_Kanten_TC_020513_DIN_
  6
Continuous
 62
     7
100
AcDbPolyline
 90
        2
 70
     0
 43
0.5
 10
120.684739057655
 20
130.9728725683161
 10
120.684739057655
 20
127.0040369964141
  0
LWPOLYLINE
  5
48D
330
1F
100
AcDbEntity
  8
Sichtbare_Kanten_TC_020513_DIN_
  6
Continuous
 62
     7
100
AcDbPolyline
 90
        2
 70
     0
 43
0.5
 10
119.284739057655
 20
141.4081288175121
 10
119.284739057655
 20
143.4553485021111
  0
LWPOLYLINE
  5
48E
330
1F
100
AcDbEntity
  8
Sichtbare_Kanten_TC_020513_DIN_
  6
Continuous
 62
     7
100
AcDbPolyline
 90
        2
 70
     0
 43
0.5
 10
120.684739057655
 20
143.4553485021111
 10
120.684739057655
 20
141.4081288175121
  0
LWPOLYLINE
  5
48F
330
1F
100
AcDbEntity
  8
Sichtbare_Kanten_TC_020513_DIN_
  6
Continuous
 62
     7
100
AcDbPolyline
 90
        2
 70
     0
 43
0.5
 10
104.984817025405
 20
142.1895098709071
 10
106.306952132137
 20
142.1895098709071
  0
LWPOLYLINE
  5
490
330
1F
100
AcDbEntity
  8
Sichtbare_Kanten_TC_020513_DIN_
  6
Continuous
 62
     7
100
AcDbPolyline
 90
        2
 70
     0
 43
0.5
 10
104.984817025405
 20
142.1895098709071
 10
103.052965372827
 20
142.1895098709071
  0
LWPOLYLINE
  5
491
330
1F
100
AcDbEntity
  8
Sichtbare_Kanten_TC_020513_DIN_
  6
Continuous
 62
     7
100
AcDbPolyline
 90
        2
 70
     0
 43
0.5
 10
105.943975760379
 20
123.3126588031331
 10
107.572521413181
 20
128.8210299733821
  0
LWPOLYLINE
  5
492
330
1F
100
AcDbEntity
  8
Sichtbare_Kanten_TC_020513_DIN_
  6
Continuous
 62
     7
100
AcDbPolyline
 90
        2
 70
     0
 43
0.5
 10
103.052965372827
 20
140.7895098709071
 10
104.984817025405
 20
140.7895098709071
  0
LWPOLYLINE
  5
493
330
1F
100
AcDbEntity
  8
Sichtbare_Kanten_TC_020513_DIN_
  6
Continuous
 62
     7
100
AcDbPolyline
 90
        2
 70
     0
 43
0.5
 10
106.306952132137
 20
140.7895098709071
 10
104.984817025405
 20
140.7895098709071
  0
LWPOLYLINE
  5
494
330
1F
100
AcDbEntity
  8
Sichtbare_Kanten_TC_020513_DIN_
  6
Continuous
 62
     7
100
AcDbPolyline
 90
        2
 70
     0
 43
0.5
 10
113.3072871764
 20
138.9728725683161
 10
108.418101755064
 20
138.9728725683161
  0
LWPOLYLINE
  5
495
330
1F
100
AcDbEntity
  8
Sichtbare_Kanten_TC_020513_DIN_
  6
Continuous
 62
     7
100
AcDbPolyline
 90
        2
 70
     0
 43
0.5
 10
115.152057311945
 20
140.6156601780031
 10
114.073331619519
 20
139.3300849586291
  0
LWPOLYLINE
  5
496
330
1F
100
AcDbEntity
  8
Sichtbare_Kanten_TC_020513_DIN_
  6
Continuous
 62
     7
100
AcDbPolyline
 90
        2
 70
     0
 43
0.5
 10
117.884739057655
 20
140.9728725683161
 10
115.918101755064
 20
140.9728725683161
  0
LWPOLYLINE
  5
497
330
1F
100
AcDbEntity
  8
Sichtbare_Kanten_TC_020513_DIN_
  6
Continuous
 62
     7
100
AcDbPolyline
 90
        2
 70
     0
 43
0.5
 10
108.418101755064
 20
130.9728725683161
 10
117.884739057655
 20
130.9728725683161
  0
LWPOLYLINE
  5
498
330
1F
100
AcDbEntity
  8
Sichtbare_Kanten_TC_020513_DIN_
  6
Continuous
 62
     7
100
AcDbPolyline
 90
        2
 70
     0
 43
0.5
 10
107.808221833234
 20
129.4126955398191
 10
108.176620298492
 20
130.7875773295921
  0
LWPOLYLINE
  5
499
330
1F
100
AcDbEntity
  8
Sichtbare_Kanten_TC_020513_DIN_
  6
Continuous
 62
     7
100
AcDbPolyline
 90
        2
 70
     0
 43
0.5
 10
88.68473905765518
 20
134.6118872333211
 10
87.93473905765518
 20
135.6476071091121
  0
LWPOLYLINE
  5
49A
330
1F
100
AcDbEntity
  8
Sichtbare_Kanten_TC_020513_DIN_
  6
Continuous
 62
     7
100
AcDbPolyline
 90
        2
 70
     0
 43
0.5
 10
87.93473905765518
 20
135.6476071091121
 10
87.93473905765518
 20
132.9873678690791
  0
LWPOLYLINE
  5
49B
330
1F
100
AcDbEntity
  8
Sichtbare_Kanten_TC_020513_DIN_
  6
Continuous
 62
     7
100
AcDbPolyline
 90
        2
 70
     0
 43
0.5
 10
87.43473905765518
 20
132.9873678690791
 10
87.43473905765518
 20
136.4190989052551
  0
LWPOLYLINE
  5
49C
330
1F
100
AcDbEntity
  8
Sichtbare_Kanten_TC_020513_DIN_
  6
Continuous
 62
     7
100
AcDbPolyline
 90
        2
 70
     0
 43
0.5
 10
89.43473905765518
 20
135.6476071091121
 10
88.68473905765518
 20
134.6118872333211
  0
LWPOLYLINE
  5
49D
330
1F
100
AcDbEntity
  8
Sichtbare_Kanten_TC_020513_DIN_
  6
Continuous
 62
     7
100
AcDbPolyline
 90
        2
 70
     0
 43
0.5
 10
89.43473905765518
 20
131.8046755613861
 10
89.43473905765518
 20
135.6476071091121
  0
LWPOLYLINE
  5
49E
330
1F
100
AcDbEntity
  8
Sichtbare_Kanten_TC_020513_DIN_
  6
Continuous
 62
     7
100
AcDbPolyline
 90
        2
 70
     0
 43
0.5
 10
89.93473905765518
 20
136.4190989052551
 10
89.93473905765518
 20
131.8046755613861
  0
LWPOLYLINE
  5
49F
330
1F
100
AcDbEntity
  8
Sichtbare_Kanten_TC_020513_DIN_
  6
Continuous
 62
     7
100
AcDbPolyline
 90
        2
 70
     0
 43
0.5
 10
88.68473905765518
 20
135.4643909084141
 10
89.48225315132811
 20
136.5657258391351
  0
LWPOLYLINE
  5
4A0
330
1F
100
AcDbEntity
  8
Sichtbare_Kanten_TC_020513_DIN_
  6
Continuous
 62
     7
100
AcDbPolyline
 90
        2
 70
     0
 43
0.5
 10
87.88722496398219
 20
136.5657258391351
 10
88.68473905765518
 20
135.4643909084141
  0
LWPOLYLINE
  5
4A1
330
1F
100
AcDbEntity
  8
Sichtbare_Kanten_TC_020513_DIN_
  6
Continuous
 62
     7
100
AcDbPolyline
 90
        2
 70
     0
 43
0.5
 10
86.88473905765517
 20
135.8133296744861
 10
86.88473905765517
 20
132.5548357733061
  0
LWPOLYLINE
  5
4A2
330
1F
100
AcDbEntity
  8
Sichtbare_Kanten_TC_020513_DIN_
  6
Continuous
 62
     7
100
AcDbPolyline
 90
        2
 70
     0
 43
0.5
 10
86.88473905765517
 20
132.5548357733061
 10
88.80966967102756
 20
131.4442988809761
  0
LWPOLYLINE
  5
4A3
330
1F
100
AcDbEntity
  8
Sichtbare_Kanten_TC_020513_DIN_
  6
Continuous
 62
     7
100
AcDbPolyline
 90
        2
 70
     0
 43
0.5
 10
86.38473905765517
 20
132.4104447921561
 10
86.38473905765517
 20
135.8133296744861
  0
LWPOLYLINE
  5
4A4
330
1F
100
AcDbEntity
  8
Sichtbare_Kanten_TC_020513_DIN_
  6
Continuous
 62
     7
100
AcDbPolyline
 90
        2
 70
     0
 43
0.5
 10
88.5598084442828
 20
131.0112060879511
 10
86.50980844428278
 20
132.1938983956441
  0
LWPOLYLINE
  5
4A5
330
1F
100
AcDbEntity
  8
Sichtbare_Kanten_TC_020513_DIN_
  6
Continuous
 62
     7
100
AcDbPolyline
 90
        2
 70
     0
 43
0.5
 10
82.18473905765518
 20
134.1118872333211
 10
88.68473905765518
 20
137.8618872333211
  0
LWPOLYLINE
  5
4A6
330
1F
100
AcDbEntity
  8
Sichtbare_Kanten_TC_020513_DIN_
  6
Continuous
 62
     7
100
AcDbPolyline
 90
        2
 70
     0
 43
0.5
 10
88.68473905765518
 20
130.3618872333211
 10
82.18473905765518
 20
134.1118872333211
  0
LWPOLYLINE
  5
4A7
330
1F
100
AcDbEntity
  8
Sichtbare_Kanten_TC_020513_DIN_
  6
Continuous
 62
     7
100
AcDbPolyline
 90
        2
 70
     0
 43
0.5
 10
88.68473905765518
 20
130.6505089837021
 10
94.68446135699497
 20
134.1118872333211
  0
LWPOLYLINE
  5
4A8
330
1F
100
AcDbEntity
  8
Sichtbare_Kanten_TC_020513_DIN_
  6
Continuous
 62
     7
100
AcDbPolyline
 90
        2
 70
     0
 43
0.5
 10
82.68501675831527
 20
134.1118872333211
 10
88.68473905765518
 20
130.6505089837021
  0
LWPOLYLINE
  5
4A9
330
1F
100
AcDbEntity
  8
Sichtbare_Kanten_TC_020513_DIN_
  6
Continuous
 62
     7
100
AcDbPolyline
 90
        2
 70
     0
 43
0.5
 10
95.18473905765495
 20
134.1118872333211
 10
88.68473905765518
 20
130.3618872333211
  0
LWPOLYLINE
  5
4AA
330
1F
100
AcDbEntity
  8
Sichtbare_Kanten_TC_020513_DIN_
  6
Continuous
 62
     7
100
AcDbPolyline
 90
        2
 70
     0
 43
0.5
 10
88.68473905765518
 20
137.8618872333211
 10
95.18473905765495
 20
134.1118872333211
  0
LWPOLYLINE
  5
4AB
330
1F
100
AcDbEntity
  8
Sichtbare_Kanten_TC_020513_DIN_
  6
Continuous
 62
     7
100
AcDbPolyline
 90
        2
 70
     0
 43
0.5
 10
88.68473905765518
 20
137.5732654829401
 10
82.68501675831527
 20
134.1118872333211
  0
LWPOLYLINE
  5
4AC
330
1F
100
AcDbEntity
  8
Sichtbare_Kanten_TC_020513_DIN_
  6
Continuous
 62
     7
100
AcDbPolyline
 90
        2
 70
     0
 43
0.5
 10
94.68446135699497
 20
134.1118872333211
 10
88.68473905765518
 20
137.5732654829401
  0
LWPOLYLINE
  5
4AD
330
1F
100
AcDbEntity
  8
Sichtbare_Kanten_TC_020513_DIN_
  6
Continuous
 62
     7
100
AcDbPolyline
 90
        2
 70
     0
 43
0.5
 10
85.88473905765517
 20
135.2364065975631
 10
85.88473905765517
 20
132.9873678690791
  0
LWPOLYLINE
  5
4AE
330
1F
100
AcDbEntity
  8
Sichtbare_Kanten_TC_020513_DIN_
  6
Continuous
 62
     7
100
AcDbPolyline
 90
        2
 70
     0
 43
0.5
 10
85.38473905765517
 20
132.9873678690791
 10
85.38473905765517
 20
135.2364065975631
  0
LWPOLYLINE
  5
4AF
330
1F
100
AcDbEntity
  8
Sichtbare_Kanten_TC_020513_DIN_
  6
Continuous
 62
     7
100
AcDbPolyline
 90
        2
 70
     0
 43
0.5
 10
90.80966967102756
 20
136.0587222248441
 10
91.80966967102745
 20
135.4817991479211
  0
LWPOLYLINE
  5
4B0
330
1F
100
AcDbEntity
  8
Sichtbare_Kanten_TC_020513_DIN_
  6
Continuous
 62
     7
100
AcDbPolyline
 90
        2
 70
     0
 43
0.5
 10
91.5598084442828
 20
135.0487063548971
 10
90.93473905765518
 20
135.4093233087211
  0
LWPOLYLINE
  5
4B1
330
1F
100
AcDbEntity
  8
Sichtbare_Kanten_TC_020513_DIN_
  6
Continuous
 62
     7
100
AcDbPolyline
 90
        2
 70
     0
 43
0.5
 10
90.93473905765518
 20
135.4093233087211
 10
90.93473905765518
 20
134.3618872333211
  0
LWPOLYLINE
  5
4B2
330
1F
100
AcDbEntity
  8
Sichtbare_Kanten_TC_020513_DIN_
  6
Continuous
 62
     7
100
AcDbPolyline
 90
        2
 70
     0
 43
0.5
 10
90.93473905765518
 20
134.3618872333211
 10
91.68473905765518
 20
134.3618872333211
  0
LWPOLYLINE
  5
4B3
330
1F
100
AcDbEntity
  8
Sichtbare_Kanten_TC_020513_DIN_
  6
Continuous
 62
     7
100
AcDbPolyline
 90
        2
 70
     0
 43
0.5
 10
90.43473905765518
 20
132.3815986383101
 10
90.43473905765518
 20
135.8421758283321
  0
LWPOLYLINE
  5
4B4
330
1F
100
AcDbEntity
  8
Sichtbare_Kanten_TC_020513_DIN_
  6
Continuous
 62
     7
100
AcDbPolyline
 90
        2
 70
     0
 43
0.5
 10
91.80966967102756
 20
132.7419753187211
 10
90.80966967102756
 20
132.1650522417971
  0
LWPOLYLINE
  5
4B5
330
1F
100
AcDbEntity
  8
Sichtbare_Kanten_TC_020513_DIN_
  6
Continuous
 62
     7
100
AcDbPolyline
 90
        2
 70
     0
 43
0.5
 10
90.93473905765518
 20
132.8144511579211
 10
91.5598084442828
 20
133.1750681117451
  0
LWPOLYLINE
  5
4B6
330
1F
100
AcDbEntity
  8
Sichtbare_Kanten_TC_020513_DIN_
  6
Continuous
 62
     7
100
AcDbPolyline
 90
        2
 70
     0
 43
0.5
 10
90.93473905765518
 20
133.8618872333211
 10
90.93473905765518
 20
132.8144511579211
  0
LWPOLYLINE
  5
4B7
330
1F
100
AcDbEntity
  8
Sichtbare_Kanten_TC_020513_DIN_
  6
Continuous
 62
     7
100
AcDbPolyline
 90
        2
 70
     0
 43
0.5
 10
91.68473905765518
 20
133.8618872333211
 10
90.93473905765518
 20
133.8618872333211
  0
LINE
  5
4B8
330
1F
100
AcDbEntity
  8
1
  6
Continuous
 62
     2
100
AcDbLine
 10
129.684739057655
 20
105.9338872333211
 30
0.0
 11
130.184739057655
 21
105.9338872333211
 31
0.0
  0
LWPOLYLINE
  5
4B9
330
1F
100
AcDbEntity
  8
Sichtbare_Kanten_TC_020513_DIN_
  6
Continuous
 62
     7
100
AcDbPolyline
 90
        2
 70
     0
 43
0.5
 10
129.684739057655
 20
105.9338872333211
 10
129.684739057655
 20
106.5218872333211
  0
LINE
  5
4BA
330
1F
100
AcDbEntity
  8
1
  6
Continuous
 62
     2
100
AcDbLine
 10
129.684739057655
 20
82.44988723332109
 30
0.0
 11
130.084739057655
 21
82.44988723332109
 31
0.0
  0
LWPOLYLINE
  5
4BB
330
1F
100
AcDbEntity
  8
Sichtbare_Kanten_TC_020513_DIN_
  6
Continuous
 62
     7
100
AcDbPolyline
 90
        2
 70
     0
 43
0.5
 10
129.684739057655
 20
82.44988723332109
 10
129.684739057655
 20
81.611887233321
  0
LWPOLYLINE
  5
4BC
330
1F
100
AcDbEntity
  8
Stich_1-Linien_TC_020513_DIN_
  6
DASHED_SPACE
 62
     7
100
AcDbPolyline
 90
        2
 70
     0
 43
0.25
 10
256.264295114951
 20
112.6118872333211
 42
0.2185222338696
 10
239.235867240054
 20
149.7140316398641
 42
0.2185222338696
  0
LWPOLYLINE
  5
4BD
330
1F
100
AcDbEntity
  8
Sichtbare_Kanten_TC_020513_DIN_
  6
Continuous
 62
     7
100
AcDbPolyline
 90
        2
 70
     0
 43
0.5
 10
234.092690228227
 20
112.7952499307301
 42
0.4142135623731
 10
232.592690228227
 20
111.2952499307301
 42
0.4142135623731
  0
LWPOLYLINE
  5
4BE
330
1F
100
AcDbEntity
  8
Sichtbare_Kanten_TC_020513_DIN_
  6
Continuous
 62
     7
100
AcDbPolyline
 90
        2
 70
     0
 43
0.5
 10
234.092690228227
 20
111.3952499307301
 42
0.4142135623731
 10
233.9926902282269
 20
111.2952499307301
 42
0.4142135623731
  0
LWPOLYLINE
  5
4BF
330
1F
100
AcDbEntity
  8
Sichtbare_Kanten_TC_020513_DIN_
  6
Continuous
 62
     7
100
AcDbPolyline
 90
        2
 70
     0
 43
0.5
 10
234.13034514323
 20
116.6118872333211
 42
0.4142135623731
 10
233.13034514323
 20
117.6118872333211
 42
0.4142135623731
  0
LWPOLYLINE
  5
4C0
330
1F
100
AcDbEntity
  8
Sichtbare_Kanten_TC_020513_DIN_
  6
Continuous
 62
     7
100
AcDbPolyline
 90
        2
 70
     0
 43
0.5
 10
222.3303451432309
 20
117.6118872333211
 42
0.28730243078716
 10
221.880497859834
 20
117.3301472196241
 42
0.28730243078716
  0
LWPOLYLINE
  5
4C1
330
1F
100
AcDbEntity
  8
Sichtbare_Kanten_TC_020513_DIN_
  6
Continuous
 62
     7
100
AcDbPolyline
 90
        2
 70
     0
 43
0.5
 10
203.673285342723
 20
109.6371955238251
 42
0.37600288377067
 10
221.880497859834
 20
117.3301472196241
 42
0.37600288377067
  0
LWPOLYLINE
  5
4C2
330
1F
100
AcDbEntity
  8
Sichtbare_Kanten_TC_020513_DIN_
  6
Continuous
 62
     7
100
AcDbPolyline
 90
        2
 70
     0
 43
0.5
 10
203.3303451432309
 20
110.1118872333211
 42
0.32343613623179
 10
203.673285342723
 20
109.6371955238251
 42
0.32343613623179
  0
LWPOLYLINE
  5
4C3
330
1F
100
AcDbEntity
  8
Sichtbare_Kanten_TC_020513_DIN_
  6
Continuous
 62
     7
100
AcDbPolyline
 90
        2
 70
     0
 43
0.5
 10
213.398087247732
 20
129.9038629469001
 42
0.55426459289413
 10
203.3303451432309
 20
123.6118872333211
 42
0.55426459289413
  0
LWPOLYLINE
  5
4C4
330
1F
100
AcDbEntity
  8
Sichtbare_Kanten_TC_020513_DIN_
  6
Continuous
 62
     7
100
AcDbPolyline
 90
        2
 70
     0
 43
0.5
 10
219.947485744769
 20
124.7902994832281
 42
0.10501060713036
 10
213.398087247732
 20
129.9038629469001
 42
0.10501060713036
  0
LWPOLYLINE
  5
4C5
330
1F
100
AcDbEntity
  8
Sichtbare_Kanten_TC_020513_DIN_
  6
Continuous
 62
     7
100
AcDbPolyline
 90
        2
 70
     0
 43
0.5
 10
219.947485744769
 20
124.7902994832281
 42
0.22156182771647
 10
220.3303451432309
 20
124.6118872333211
 42
0.22156182771647
  0
LWPOLYLINE
  5
4C6
330
1F
100
AcDbEntity
  8
Sichtbare_Kanten_TC_020513_DIN_
  6
Continuous
 62
     7
100
AcDbPolyline
 90
        2
 70
     0
 43
0.5
 10
241.13034514323
 20
116.6118872333211
 42
0.4142135623731
 10
233.13034514323
 20
124.6118872333211
 42
0.4142135623731
  0
LWPOLYLINE
  5
4C7
330
1F
100
AcDbEntity
  8
Sichtbare_Kanten_TC_020513_DIN_
  6
Continuous
 62
     7
100
AcDbPolyline
 90
        2
 70
     0
 43
0.5
 10
222.660345143228
 20
94.1918872333211
 42
1.0
 10
198.000345143228
 20
94.1918872333211
 42
1.0
  0
LWPOLYLINE
  5
4C8
330
1F
100
AcDbEntity
  8
Sichtbare_Kanten_TC_020513_DIN_
  6
Continuous
 62
     7
100
AcDbPolyline
 90
        2
 70
     0
 43
0.5
 10
215.559223079567
 20
134.8270217640201
 42
0.24469844322865
 10
215.617347098901
 20
135.2850975003351
 42
0.24469844322865
  0
LWPOLYLINE
  5
4C9
330
1F
100
AcDbEntity
  8
Sichtbare_Kanten_TC_020513_DIN_
  6
Continuous
 62
     7
100
AcDbPolyline
 90
        2
 70
     0
 43
0.5
 10
214.5517020904071
 20
138.1707796364481
 42
0.45934868709203
 10
208.151792010989
 20
140.5493872333211
 42
0.45934868709203
  0
LWPOLYLINE
  5
4CA
330
1F
100
AcDbEntity
  8
Sichtbare_Kanten_TC_020513_DIN_
  6
Continuous
 62
     7
100
AcDbPolyline
 90
        2
 70
     0
 43
0.5
 10
206.070063462403
 20
148.6118872333211
 42
1.29099444873574
 10
208.151792010989
 20
140.5493872333211
 42
1.29099444873574
  0
LWPOLYLINE
  5
4CB
330
1F
100
AcDbEntity
  8
Sichtbare_Kanten_TC_020513_DIN_
  6
Continuous
 62
     7
100
AcDbPolyline
 90
        2
 70
     0
 43
0.5
 10
232.35579066966
 20
143.4553485021111
 42
0.13830205371534
 10
214.070063462403
 20
148.6118872333211
 42
0.13830205371534
  0
LWPOLYLINE
  5
4CC
330
1F
100
AcDbEntity
  8
Sichtbare_Kanten_TC_020513_DIN_
  6
Continuous
 62
     7
100
AcDbPolyline
 90
        2
 70
     0
 43
0.5
 10
233.546045617045
 20
131.3524902239311
 42
0.22928747325023
 10
234.3303451432309
 20
130.9728725683161
 42
0.22928747325023
  0
LWPOLYLINE
  5
4CD
330
1F
100
AcDbEntity
  8
Sichtbare_Kanten_TC_020513_DIN_
  6
Continuous
 62
     7
100
AcDbPolyline
 90
        2
 70
     0
 43
0.5
 10
230.722494906324
 20
134.9220784055141
 42
0.41421356237263
 10
230.020153971039
 20
135.0040369964141
 42
0.41421356237263
  0
LWPOLYLINE
  5
4CE
330
1F
100
AcDbEntity
  8
Sichtbare_Kanten_TC_020513_DIN_
  6
Continuous
 62
     7
100
AcDbPolyline
 90
        2
 70
     0
 43
0.5
 10
219.906397081804
 20
127.0040369964141
 42
0.20643458883364
 10
219.718490904951
 20
126.6554651046951
 42
0.20643458883364
  0
LWPOLYLINE
  5
4CF
330
1F
100
AcDbEntity
  8
Sichtbare_Kanten_TC_020513_DIN_
  6
Continuous
 62
     7
100
AcDbPolyline
 90
        2
 70
     0
 43
0.5
 10
56.08473905765516
 20
114.1952499307301
 42
0.4142135623731
 10
57.48473905765519
 20
112.7952499307301
 42
0.4142135623731
  0
LWPOLYLINE
  5
4D0
330
1F
100
AcDbEntity
  8
Sichtbare_Kanten_TC_020513_DIN_
  6
Continuous
 62
     7
100
AcDbPolyline
 90
        2
 70
     0
 43
0.5
 10
54.68473905765518
 20
114.1952499307301
 42
0.4142135623731
 10
57.48473905765519
 20
111.3952499307301
 42
0.4142135623731
  0
LWPOLYLINE
  5
4D1
330
1F
100
AcDbEntity
  8
Sichtbare_Kanten_TC_020513_DIN_
  6
Continuous
 62
     7
100
AcDbPolyline
 90
        2
 70
     0
 43
0.5
 10
78.40137636024588
 20
110.4575950157231
 42
0.4142135623731
 10
78.90137636024588
 20
110.9575950157231
 42
0.4142135623731
  0
LWPOLYLINE
  5
4D2
330
1F
100
AcDbEntity
  8
Sichtbare_Kanten_TC_020513_DIN_
  6
Continuous
 62
     7
100
AcDbPolyline
 90
        2
 70
     0
 43
0.5
 10
119.884739057655
 20
112.7952499307301
 42
0.4142135623731
 10
121.284739057655
 20
114.1952499307301
 42
0.4142135623731
  0
LWPOLYLINE
  5
4D3
330
1F
100
AcDbEntity
  8
Sichtbare_Kanten_TC_020513_DIN_
  6
Continuous
 62
     7
100
AcDbPolyline
 90
        2
 70
     0
 43
0.5
 10
119.884739057655
 20
111.3952499307301
 42
0.4142135623731
 10
122.684739057655
 20
114.1952499307301
 42
0.4142135623731
  0
LWPOLYLINE
  5
4D4
330
1F
100
AcDbEntity
  8
Sichtbare_Kanten_TC_020513_DIN_
  6
Continuous
 62
     7
100
AcDbPolyline
 90
        2
 70
     0
 43
0.5
 10
98.46810175506397
 20
110.9575950157231
 42
0.4142135623731
 10
98.96810175506397
 20
110.4575950157231
 42
0.4142135623731
  0
LWPOLYLINE
  5
4D5
330
1F
100
AcDbEntity
  8
Sichtbare_Kanten_TC_020513_DIN_
  6
Continuous
 62
     7
100
AcDbPolyline
 90
        2
 70
     0
 43
0.5
 10
124.684739057655
 20
127.6118872333211
 42
1.0
 10
123.284739057655
 20
127.6118872333211
 42
1.0
  0
LWPOLYLINE
  5
4D6
330
1F
100
AcDbEntity
  8
Sichtbare_Kanten_TC_020513_DIN_
  6
Continuous
 62
     7
100
AcDbPolyline
 90
        2
 70
     0
 43
0.5
 10
123.284739057655
 20
119.6118872333211
 42
1.0
 10
124.684739057655
 20
119.6118872333211
 42
1.0
  0
LWPOLYLINE
  5
4D7
330
1F
100
AcDbEntity
  8
Sichtbare_Kanten_TC_020513_DIN_
  6
Continuous
 62
     7
100
AcDbPolyline
 90
        2
 70
     0
 43
0.5
 10
52.68473905765518
 20
119.6118872333211
 42
1.0
 10
54.08473905765516
 20
119.6118872333211
 42
1.0
  0
LWPOLYLINE
  5
4D8
330
1F
100
AcDbEntity
  8
Sichtbare_Kanten_TC_020513_DIN_
  6
Continuous
 62
     7
100
AcDbPolyline
 90
        2
 70
     0
 43
0.5
 10
54.08473905765516
 20
127.6118872333211
 42
1.0
 10
52.68473905765518
 20
127.6118872333211
 42
1.0
  0
LWPOLYLINE
  5
4D9
330
1F
100
AcDbEntity
  8
Sichtbare_Kanten_TC_020513_DIN_
  6
Continuous
 62
     7
100
AcDbPolyline
 90
        2
 70
     0
 43
0.5
 10
119.284739057655
 20
113.4742323183131
 42
0.11797797415311
 10
119.44721039727
 20
112.7952499307301
 42
0.11797797415311
  0
LWPOLYLINE
  5
4DA
330
1F
100
AcDbEntity
  8
Sichtbare_Kanten_TC_020513_DIN_
  6
Continuous
 62
     7
100
AcDbPolyline
 90
        2
 70
     0
 43
0.5
 10
120.684739057655
 20
113.4742323183131
 42
0.4142135623731
 10
120.784739057655
 20
113.3742323183131
 42
0.4142135623731
  0
LWPOLYLINE
  5
4DB
330
1F
100
AcDbEntity
  8
Sichtbare_Kanten_TC_020513_DIN_
  6
Continuous
 62
     7
100
AcDbPolyline
 90
        2
 70
     0
 43
0.5
 10
57.9222677180403
 20
112.7952499307301
 42
0.1179779741531
 10
58.08473905765516
 20
113.4742323183131
 42
0.1179779741531
  0
LWPOLYLINE
  5
4DC
330
1F
100
AcDbEntity
  8
Sichtbare_Kanten_TC_020513_DIN_
  6
Continuous
 62
     7
100
AcDbPolyline
 90
        2
 70
     0
 43
0.5
 10
56.58473905765516
 20
113.3742323183131
 42
0.4142135623731
 10
56.68473905765518
 20
113.4742323183131
 42
0.4142135623731
  0
LWPOLYLINE
  5
4DD
330
1F
100
AcDbEntity
  8
Sichtbare_Kanten_TC_020513_DIN_
  6
Continuous
 62
     7
100
AcDbPolyline
 90
        2
 70
     0
 43
0.5
 10
69.19285781681822
 20
130.7875773295921
 42
0.33945425886299
 10
68.95137636024589
 20
130.9728725683161
 42
0.33945425886299
  0
LWPOLYLINE
  5
4DE
330
1F
100
AcDbEntity
  8
Sichtbare_Kanten_TC_020513_DIN_
  6
Continuous
 62
     7
100
AcDbPolyline
 90
        2
 70
     0
 43
0.5
 10
62.21742080336492
 20
140.6156601780021
 42
0.22169466264306
 10
61.45137636024589
 20
140.9728725683161
 42
0.22169466264306
  0
LWPOLYLINE
  5
4DF
330
1F
100
AcDbEntity
  8
Sichtbare_Kanten_TC_020513_DIN_
  6
Continuous
 62
     7
100
AcDbPolyline
 90
        2
 70
     0
 43
0.5
 10
63.2961464957915
 20
139.3300849586291
 42
0.22169466264285
 10
64.06219093891048
 20
138.9728725683161
 42
0.22169466264285
  0
LWPOLYLINE
  5
4E0
330
1F
100
AcDbEntity
  8
Sichtbare_Kanten_TC_020513_DIN_
  6
Continuous
 62
     7
100
AcDbPolyline
 90
        2
 70
     0
 43
0.5
 10
68.95137636024589
 20
138.9728725683161
 42
0.1932943131769
 10
69.98883733101161
 20
139.3895098709071
 42
0.1932943131769
  0
LWPOLYLINE
  5
4E1
330
1F
100
AcDbEntity
  8
Sichtbare_Kanten_TC_020513_DIN_
  6
Continuous
 62
     7
100
AcDbPolyline
 90
        2
 70
     0
 43
0.5
 10
107.380640784299
 20
139.3895098709071
 42
0.19329431317681
 10
108.418101755064
 20
138.9728725683161
 42
0.19329431317681
  0
LWPOLYLINE
  5
4E2
330
1F
100
AcDbEntity
  8
Sichtbare_Kanten_TC_020513_DIN_
  6
Continuous
 62
     7
100
AcDbPolyline
 90
        2
 70
     0
 43
0.5
 10
113.3072871764
 20
138.9728725683161
 42
0.22169466264285
 10
114.073331619519
 20
139.3300849586291
 42
0.22169466264285
  0
LWPOLYLINE
  5
4E3
330
1F
100
AcDbEntity
  8
Sichtbare_Kanten_TC_020513_DIN_
  6
Continuous
 62
     7
100
AcDbPolyline
 90
        2
 70
     0
 43
0.5
 10
115.918101755064
 20
140.9728725683161
 42
0.22169466264285
 10
115.152057311945
 20
140.6156601780031
 42
0.22169466264285
  0
LWPOLYLINE
  5
4E4
330
1F
100
AcDbEntity
  8
Sichtbare_Kanten_TC_020513_DIN_
  6
Continuous
 62
     7
100
AcDbPolyline
 90
        2
 70
     0
 43
0.5
 10
108.418101755064
 20
130.9728725683161
 42
0.3394542588629
 10
108.176620298492
 20
130.7875773295921
 42
0.3394542588629
  0
LWPOLYLINE
  5
4E5
330
1F
100
AcDbEntity
  8
Sichtbare_Kanten_TC_020513_DIN_
  6
Continuous
 62
     7
100
AcDbPolyline
 90
        2
 70
     0
 43
0.5
 10
87.43473905765518
 20
132.9873678690791
 42
1.0
 10
87.93473905765518
 20
132.9873678690791
 42
1.0
  0
LWPOLYLINE
  5
4E6
330
1F
100
AcDbEntity
  8
Sichtbare_Kanten_TC_020513_DIN_
  6
Continuous
 62
     7
100
AcDbPolyline
 90
        2
 70
     0
 43
0.5
 10
87.88722496398219
 20
136.5657258391351
 42
0.72714551713721
 10
87.43473905765518
 20
136.4190989052551
 42
0.72714551713721
  0
LWPOLYLINE
  5
4E7
330
1F
100
AcDbEntity
  8
Sichtbare_Kanten_TC_020513_DIN_
  6
Continuous
 62
     7
100
AcDbPolyline
 90
        2
 70
     0
 43
0.5
 10
89.43473905765518
 20
131.8046755613861
 42
1.0
 10
89.93473905765518
 20
131.8046755613861
 42
1.0
  0
LWPOLYLINE
  5
4E8
330
1F
100
AcDbEntity
  8
Sichtbare_Kanten_TC_020513_DIN_
  6
Continuous
 62
     7
100
AcDbPolyline
 90
        2
 70
     0
 43
0.5
 10
89.93473905765518
 20
136.4190989052551
 42
0.72714551713726
 10
89.48225315132811
 20
136.5657258391351
 42
0.72714551713726
  0
LWPOLYLINE
  5
4E9
330
1F
100
AcDbEntity
  8
Sichtbare_Kanten_TC_020513_DIN_
  6
Continuous
 62
     7
100
AcDbPolyline
 90
        2
 70
     0
 43
0.5
 10
86.88473905765517
 20
135.8133296744861
 42
1.0
 10
86.38473905765517
 20
135.8133296744861
 42
1.0
  0
LWPOLYLINE
  5
4EA
330
1F
100
AcDbEntity
  8
Sichtbare_Kanten_TC_020513_DIN_
  6
Continuous
 62
     7
100
AcDbPolyline
 90
        2
 70
     0
 43
0.5
 10
86.38473905765517
 20
132.4104447921561
 42
0.268035059522
 10
86.50980844428278
 20
132.1938983956441
 42
0.268035059522
  0
LWPOLYLINE
  5
4EB
330
1F
100
AcDbEntity
  8
Sichtbare_Kanten_TC_020513_DIN_
  6
Continuous
 62
     7
100
AcDbPolyline
 90
        2
 70
     0
 43
0.5
 10
88.5598084442828
 20
131.0112060879511
 42
1.00000000000099
 10
88.80966967102756
 20
131.4442988809761
 42
1.00000000000099
  0
LWPOLYLINE
  5
4EC
330
1F
100
AcDbEntity
  8
Sichtbare_Kanten_TC_020513_DIN_
  6
Continuous
 62
     7
100
AcDbPolyline
 90
        2
 70
     0
 43
0.5
 10
85.88473905765517
 20
135.2364065975631
 42
1.0
 10
85.38473905765517
 20
135.2364065975631
 42
1.0
  0
LWPOLYLINE
  5
4ED
330
1F
100
AcDbEntity
  8
Sichtbare_Kanten_TC_020513_DIN_
  6
Continuous
 62
     7
100
AcDbPolyline
 90
        2
 70
     0
 43
0.5
 10
85.38473905765517
 20
132.9873678690791
 42
1.0
 10
85.88473905765517
 20
132.9873678690791
 42
1.0
  0
LWPOLYLINE
  5
4EE
330
1F
100
AcDbEntity
  8
Sichtbare_Kanten_TC_020513_DIN_
  6
Continuous
 62
     7
100
AcDbPolyline
 90
        2
 70
     0
 43
0.5
 10
90.80966967102756
 20
136.0587222248441
 42
0.57724345630784
 10
90.43473905765518
 20
135.8421758283321
 42
0.57724345630784
  0
LWPOLYLINE
  5
4EF
330
1F
100
AcDbEntity
  8
Sichtbare_Kanten_TC_020513_DIN_
  6
Continuous
 62
     7
100
AcDbPolyline
 90
        2
 70
     0
 43
0.5
 10
91.5598084442828
 20
135.0487063548971
 42
1.0000000000002
 10
91.80966967102745
 20
135.4817991479211
 42
1.0000000000002
  0
LWPOLYLINE
  5
4F0
330
1F
100
AcDbEntity
  8
Sichtbare_Kanten_TC_020513_DIN_
  6
Continuous
 62
     7
100
AcDbPolyline
 90
        2
 70
     0
 43
0.5
 10
90.43473905765518
 20
132.3815986383101
 42
0.57724345630718
 10
90.80966967102756
 20
132.1650522417971
 42
0.57724345630718
  0
LWPOLYLINE
  5
4F1
330
1F
100
AcDbEntity
  8
Sichtbare_Kanten_TC_020513_DIN_
  6
Continuous
 62
     7
100
AcDbPolyline
 90
        2
 70
     0
 43
0.5
 10
91.80966967102756
 20
132.7419753187211
 42
1.0
 10
91.5598084442828
 20
133.1750681117451
 42
1.0
  0
LWPOLYLINE
  5
4F2
330
1F
100
AcDbEntity
  8
Sichtbare_Kanten_TC_020513_DIN_
  6
Continuous
 62
     7
100
AcDbPolyline
 90
        2
 70
     0
 43
0.5
 10
91.68473905765518
 20
133.8618872333211
 42
1.0
 10
91.68473905765518
 20
134.3618872333211
 42
1.0
  0
LWPOLYLINE
  5
4F3
330
1F
100
AcDbEntity
  8
Sichtbare_Kanten_TC_020513_DIN_
  6
Continuous
 62
     7
100
AcDbPolyline
 90
        2
 70
     1
 43
0.5
 10
205.5803451432309
 20
112.6118872333211
 42
1.0
 10
209.0803451432309
 20
112.6118872333211
 42
1.0
  0
LWPOLYLINE
  5
4F4
330
1F
100
AcDbEntity
  8
Sichtbare_Kanten_TC_020513_DIN_
  6
Continuous
 62
     7
100
AcDbPolyline
 90
        2
 70
     1
 43
0.5
 10
205.63034514323
 20
123.6118872333211
 42
1.0
 10
215.03034514323
 20
123.6118872333211
 42
1.0
  0
LWPOLYLINE
  5
4F5
330
1F
100
AcDbEntity
  8
Sichtbare_Kanten_TC_020513_DIN_
  6
Continuous
 62
     7
100
AcDbPolyline
 90
        2
 70
     1
 43
0.5
 10
199.750345143236
 20
94.1918872333211
 42
1.0
 10
220.910345143228
 20
94.1918872333211
 42
1.0
  0
LWPOLYLINE
  5
4F6
330
1F
100
AcDbEntity
  8
Sichtbare_Kanten_TC_020513_DIN_
  6
Continuous
 62
     7
100
AcDbPolyline
 90
        2
 70
     1
 43
0.5
 10
202.750345143232
 20
94.1918872333211
 42
1.0
 10
217.910345143232
 20
94.1918872333211
 42
1.0
  0
SPLINE
  5
4F7
330
1F
100
AcDbEntity
  8
Sichtbare_Kanten_TC_020513_DIN_
  6
Continuous
 62
     7
100
AcDbSpline
210
0.0
220
0.0
230
1.0
 70
     8
 71
     3
 72
    19
 73
    15
 74
    13
 42
0.000000001
 43
0.0000000001
 44
0.00000001
 40
0.0
 40
0.0
 40
0.0
 40
0.0
 40
0.3221862205370643
 40
0.644386261834458
 40
0.8094705328398979
 40
0.9745562229284658
 40
1.142463280812476
 40
1.310374909567617
 40
1.480895931774249
 40
1.651417687594404
 40
1.824033462669006
 40
1.996661195041141
 40
2.257865073019691
 40
2.518894987889541
 40
2.518894987889541
 40
2.518894987889541
 40
2.518894987889541
 10
71.42550235493167
 20
123.3126588031331
 30
0.0
 10
71.46171601780941
 20
123.2112244824945
 30
0.0
 10
71.53414491053245
 20
123.0083514954592
 30
0.0
 10
71.68353655696598
 20
122.7806610519508
 30
0.0
 10
71.82389023380256
 20
122.6144848133916
 30
0.0
 10
71.94223740485782
 20
122.4976679785775
 30
0.0
 10
72.07088617465065
 20
122.3909339359282
 30
0.0
 10
72.20966618697831
 20
122.2945209489978
 30
0.0
 10
72.35680033993809
 20
122.209661754744
 30
0.0
 10
72.51185075373205
 20
122.1365999523188
 30
0.0
 10
72.67300769178419
 20
122.0760980513485
 30
0.0
 10
72.8675812670733
 20
122.0208422607404
 30
0.0
 10
73.09612154146154
 20
121.9780987686786
 30
0.0
 10
73.27029585847428
 20
121.9721540319688
 30
0.0
 10
73.3573540075098
 20
121.9691826610791
 30
0.0
 11
71.42550235493167
 21
123.3126588031331
 31
0.0
 11
71.54576676612788
 21
123.0137601024187
 31
0.0
 11
71.71904991893184
 21
122.7421246537012
 31
0.0
 11
71.82574413168389
 21
122.6161517923269
 31
0.0
 11
71.94314044513669
 21
122.5000854710407
 31
0.0
 11
72.07233332524409
 21
122.3928381863257
 31
0.0
 11
72.21020113480773
 21
122.2969904821401
 31
0.0
 11
72.35788838637643
 21
122.2117502629459
 31
0.0
 11
72.51211748402838
 21
122.139010625466
 31
0.0
 11
72.67372717524557
 21
122.0783598734584
 31
0.0
 11
72.83971591730474
 21
122.0309460390212
 31
0.0
 11
73.09678200440351
 21
121.9846373656757
 31
0.0
 11
73.3573540075098
 21
121.9691826610791
 31
0.0
  0
SPLINE
  5
4F8
330
1F
100
AcDbEntity
  8
Sichtbare_Kanten_TC_020513_DIN_
  6
Continuous
 62
     7
100
AcDbSpline
210
0.0
220
0.0
230
1.0
 70
     8
 71
     3
 72
    19
 73
    15
 74
    13
 42
0.000000001
 43
0.0000000001
 44
0.00000001
 40
0.0
 40
0.0
 40
0.0
 40
0.0
 40
0.3221862205370511
 40
0.6443862618344687
 40
0.8094705328399086
 40
0.9745562229284465
 40
1.142463280812466
 40
1.310374909567623
 40
1.480895931774248
 40
1.651417687594403
 40
1.824033462669023
 40
1.996661195041137
 40
2.257865073019701
 40
2.518894987889537
 40
2.518894987889537
 40
2.518894987889537
 40
2.518894987889537
 10
71.42550235493167
 20
122.7209932366961
 30
0.0
 10
71.46171601780938
 20
122.6195589160575
 30
0.0
 10
71.5341449105325
 20
122.4166859290223
 30
0.0
 10
71.68353655696595
 20
122.1889954855137
 30
0.0
 10
71.82389023380256
 20
122.0228192469546
 30
0.0
 10
71.94223740485788
 20
121.9060024121405
 30
0.0
 10
72.07088617465064
 20
121.7992683694912
 30
0.0
 10
72.20966618697831
 20
121.7028553825608
 30
0.0
 10
72.3568003399381
 20
121.617996188307
 30
0.0
 10
72.51185075373205
 20
121.5449343858818
 30
0.0
 10
72.67300769178419
 20
121.4844324849114
 30
0.0
 10
72.86758126707333
 20
121.4291766943035
 30
0.0
 10
73.09612154146157
 20
121.3864332022416
 30
0.0
 10
73.2702958584743
 20
121.3804884655319
 30
0.0
 10
73.3573540075098
 20
121.3775170946421
 30
0.0
 11
71.42550235493167
 21
122.7209932366961
 31
0.0
 11
71.54576676612788
 21
122.4220945359818
 31
0.0
 11
71.71904991893184
 21
122.1504590872641
 31
0.0
 11
71.82574413168389
 21
122.0244862258898
 31
0.0
 11
71.94314044513669
 21
121.9084199046037
 31
0.0
 11
72.07233332524409
 21
121.8011726198887
 31
0.0
 11
72.21020113480773
 21
121.7053249157031
 31
0.0
 11
72.35788838637643
 21
121.6200846965089
 31
0.0
 11
72.51211748402838
 21
121.547345059029
 31
0.0
 11
72.67372717524559
 21
121.4866943070214
 31
0.0
 11
72.83971591730474
 21
121.4392804725842
 31
0.0
 11
73.09678200440352
 21
121.3929717992387
 31
0.0
 11
73.3573540075098
 21
121.3775170946421
 31
0.0
  0
SPLINE
  5
4F9
330
1F
100
AcDbEntity
  8
Sichtbare_Kanten_TC_020513_DIN_
  6
Continuous
 62
     7
100
AcDbSpline
210
0.0
220
0.0
230
1.0
 70
     8
 71
     3
 72
    19
 73
    15
 74
    13
 42
0.000000001
 43
0.0000000001
 44
0.00000001
 40
0.0
 40
0.0
 40
0.0
 40
0.0
 40
0.3474606674149914
 40
0.6949175350301032
 40
0.8665696488952231
 40
1.038221191656195
 40
1.207484861390469
 40
1.376745209810043
 40
1.543251855853919
 40
1.709751057160565
 40
1.873443934533943
 40
2.037147336109872
 40
2.278188137688274
 40
2.51898652894784
 40
2.51898652894784
 40
2.51898652894784
 40
2.51898652894784
 10
104.0121241078
 20
121.3775170946421
 30
0.0
 10
104.1280558777129
 20
121.3827740570338
 30
0.0
 10
104.3599181485617
 20
121.393287939002
 30
0.0
 10
104.6419899547328
 20
121.4643612567147
 30
0.0
 10
104.8577740565666
 20
121.5449282325335
 30
0.0
 10
105.0125108048801
 20
121.6179220457783
 30
0.0
 10
105.1599875937384
 20
121.7029682158244
 30
0.0
 10
105.2984157000585
 20
121.7991279426903
 30
0.0
 10
105.4274259878904
 20
121.9061596370588
 30
0.0
 10
105.5453472779787
 20
122.0226669486334
 30
0.0
 10
105.6520110035206
 20
122.1484034137692
 30
0.0
 10
105.76088617385
 20
122.3036395722183
 30
0.0
 10
105.8660198901216
 20
122.4926620274691
 30
0.0
 10
105.9179991916316
 20
122.6449083633184
 30
0.0
 10
105.943975760379
 20
122.7209932366961
 30
0.0
 11
104.0121241078
 21
121.3775170946421
 31
0.0
 11
104.3585034270905
 21
121.4049083808808
 31
0.0
 11
104.6961643944518
 21
121.4868311894369
 31
0.0
 11
104.8568730135999
 21
121.5471402938382
 31
0.0
 11
105.0121241078004
 21
121.6203615342724
 31
0.0
 11
105.1587214157598
 21
121.7049748865173
 31
0.0
 11
105.2976993271737
 21
121.8015885806851
 31
0.0
 11
105.4258088984233
 21
121.9079483530173
 31
0.0
 11
105.5442129940388
 21
122.0250058365759
 31
0.0
 11
105.6500092993736
 21
122.1499158049487
 31
0.0
 11
105.7441749153693
 21
122.2838248816786
 31
0.0
 11
105.8594293330966
 21
122.4955253499942
 31
0.0
 11
105.943975760379
 21
122.7209932366961
 31
0.0
  0
SPLINE
  5
4FA
330
1F
100
AcDbEntity
  8
Sichtbare_Kanten_TC_020513_DIN_
  6
Continuous
 62
     7
100
AcDbSpline
210
0.0
220
0.0
230
1.0
 70
     8
 71
     3
 72
    19
 73
    15
 74
    13
 42
0.000000001
 43
0.0000000001
 44
0.00000001
 40
0.0
 40
0.0
 40
0.0
 40
0.0
 40
0.347460667414113
 40
0.6949175350291177
 40
0.8665696488942193
 40
1.038221191655264
 40
1.207484861389682
 40
1.376745209809236
 40
1.543251855852751
 40
1.709751057159016
 40
1.873443934532409
 40
2.03714733610849
 40
2.278188137686956
 40
2.518986528946563
 40
2.518986528946563
 40
2.518986528946563
 40
2.518986528946563
 10
104.012124107801
 20
121.9691826610791
 30
0.0
 10
104.1280558777136
 20
121.9744396234708
 30
0.0
 10
104.3599181485621
 20
121.984953505439
 30
0.0
 10
104.6419899547327
 20
122.0560268231518
 30
0.0
 10
104.8577740565666
 20
122.1365937989705
 30
0.0
 10
105.0125108048801
 20
122.2095876122155
 30
0.0
 10
105.1599875937384
 20
122.2946337822619
 30
0.0
 10
105.2984157000582
 20
122.390793509128
 30
0.0
 10
105.4274259878898
 20
122.4978252034963
 30
0.0
 10
105.5453472779781
 20
122.6143325150707
 30
0.0
 10
105.65201100352
 20
122.7400689802063
 30
0.0
 10
105.7608861738498
 20
122.8953051386553
 30
0.0
 10
105.8660198901215
 20
123.084327593906
 30
0.0
 10
105.9179991916316
 20
123.2365739297554
 30
0.0
 10
105.943975760379
 20
123.3126588031331
 30
0.0
 11
104.012124107801
 21
121.9691826610791
 31
0.0
 11
104.3585034270906
 21
121.9965739473178
 31
0.0
 11
104.6961643944518
 21
122.0784967558739
 31
0.0
 11
104.8568730135999
 21
122.1388058602752
 31
0.0
 11
105.0121241078004
 21
122.2120271007096
 31
0.0
 11
105.1587214157598
 21
122.2966404529548
 31
0.0
 11
105.2976993271735
 21
122.3932541471228
 31
0.0
 11
105.4258088984228
 21
122.4996139194548
 31
0.0
 11
105.5442129940381
 21
122.6166714030131
 31
0.0
 11
105.650009299373
 21
122.7415813713857
 31
0.0
 11
105.7441749153691
 21
122.8754904481156
 31
0.0
 11
105.8594293330965
 21
123.0871909164311
 31
0.0
 11
105.943975760379
 21
123.3126588031331
 31
0.0
  0
LWPOLYLINE
  5
4FB
330
1F
100
AcDbEntity
  8
Sichtbare_Kanten_TC_020513_DIN_
  6
Continuous
 62
     7
100
AcDbPolyline
 90
       25
 70
     0
 43
0.5
 10
238.579387177384
 20
139.8627336192771
 10
238.574492443955
 20
139.8488421607651
 10
238.569194783128
 20
139.8331947494191
 10
238.563577641404
 20
139.8158867526691
 10
238.557731617845
 20
139.7970183063191
 10
238.5517401589519
 20
139.7766871619861
 10
238.545696247971
 20
139.7549910712881
 10
238.539683331407
 20
139.7320301700271
 10
238.5337896241309
 20
139.7079010177291
 10
238.52810334102
 20
139.6827013660111
 10
238.522712696946
 20
139.6565325427691
 10
238.517705906785
 20
139.6294899154351
 10
238.513223637498
 20
139.6022434402151
 10
238.50943278209
 20
139.5763559508961
 10
238.50628327266
 20
139.5519192386311
 10
238.5037155045631
 20
139.5289428401631
 10
238.501667488969
 20
139.5074362922351
 10
238.500084389603
 20
139.4874115157761
 10
238.498906601823
 20
139.4688756633441
 10
238.4980697526099
 20
139.4518394637741
 10
238.497521389878
 20
139.4363136459031
 10
238.497197140611
 20
139.4223077464741
 10
238.497037400162
 20
139.4098324943231
 10
238.496987332261
 20
139.3988962340991
 10
238.496982563889
 20
139.3895096946401
  0
LWPOLYLINE
  5
4FC
330
1F
100
AcDbEntity
  8
Sichtbare_Kanten_TC_020513_DIN_
  6
Continuous
 62
     7
100
AcDbPolyline
 90
       25
 70
     0
 43
0.5
 10
239.896983612931
 20
140.7895095515891
 10
239.825336445726
 20
140.7876749206231
 10
239.754023064531
 20
140.7821912933031
 10
239.683176983751
 20
140.7730860877671
 10
239.612934101976
 20
140.7603902984301
 10
239.5434350861671
 20
140.7441325355211
 10
239.474813450731
 20
140.7243402171771
 10
239.407209862626
 20
140.7010443378131
 10
239.340760220445
 20
140.6742735076591
 10
239.2757196320659
 20
140.6441147494951
 10
239.212436188615
 20
140.6107361484211
 10
239.1510267151961
 20
140.5742247272171
 10
239.091608036912
 20
140.5346603561081
 10
239.034292210496
 20
140.4921264815971
 10
238.979193676866
 20
140.4467053580921
 10
238.926424492753
 20
140.3984780479111
 10
238.876099099076
 20
140.3475279975571
 10
238.828384388841
 20
140.2939982581781
 10
238.783549775041
 20
140.2381951976461
 10
238.741681088365
 20
140.1802559066461
 10
238.702854622758
 20
140.1203007865591
 10
238.667139519608
 20
140.0584514308611
 10
238.63460730449
 20
139.9948258567491
 10
238.6053318871619
 20
139.9295468497911
 10
238.579387177384
 20
139.8627336192771
  0
LWPOLYLINE
  5
4FD
330
1F
100
AcDbEntity
  8
Sichtbare_Kanten_TC_020513_DIN_
  6
Continuous
 62
     7
100
AcDbPolyline
 90
       25
 70
     0
 43
0.5
 10
237.587663639939
 20
140.9728725124041
 10
237.653376568711
 20
141.0646898914021
 10
237.722808827317
 20
141.1538691688221
 10
237.7958865059979
 20
141.2402911353751
 10
237.872495163835
 20
141.3237936664261
 10
237.952312935746
 20
141.4040227103871
 10
238.035192002213
 20
141.4808578658741
 10
238.121020306504
 20
141.5542156863851
 10
238.2096857918861
 20
141.6240174937891
 10
238.3010787858131
 20
141.6901798415821
 10
238.395084847367
 20
141.7526216674491
 10
238.491594304002
 20
141.8112607169791
 10
238.590492714799
 20
141.8660159278551
 10
238.691670407212
 20
141.9168050456681
 10
238.7949366463789
 20
141.9635136295001
 10
238.899938572801
 20
142.0059771705311
 10
239.00652836696
 20
142.0441456008591
 10
239.114577282823
 20
142.0779736209551
 10
239.2239494217999
 20
142.1074183154741
 10
239.334499348558
 20
142.1324308086081
 10
239.4459171189429
 20
142.1529383826891
 10
239.558011998094
 20
142.1689160037681
 10
239.670648087419
 20
142.1803469825431
 10
239.783684719957
 20
142.1872170139001
 10
239.896983612931
 20
142.1895094085381
  0
LWPOLYLINE
  5
4FE
330
1F
100
AcDbEntity
  8
Sichtbare_Kanten_TC_020513_DIN_
  6
Continuous
 62
     7
100
AcDbPolyline
 90
       25
 70
     0
 43
0.5
 10
238.496982563889
 20
129.4126953054111
 10
238.497213829911
 20
129.3872250486061
 10
238.4979100121619
 20
129.3617732692401
 10
238.499066342271
 20
129.3363471198721
 10
238.500685204423
 20
129.3109519649191
 10
238.502764214433
 20
129.2855949569391
 10
238.5053033723
 20
129.2602820563951
 10
238.508302678025
 20
129.2350192237541
 10
238.5117597474219
 20
129.2098130155251
 10
238.515676964677
 20
129.1846699882191
 10
238.520051945603
 20
129.1595955062551
 10
238.524882306016
 20
129.1345973182361
 10
238.530168045914
 20
129.1096801925341
 10
238.535906781113
 20
129.0848632026351
 10
238.542093743241
 20
129.0601654220261
 10
238.548726548112
 20
129.0355922151251
 10
238.555802811539
 20
129.0111495423951
 10
238.563322533524
 20
128.9868433643021
 10
238.571280945695
 20
128.9626802373571
 10
238.579675663865
 20
128.9386655259771
 10
238.588509072221
 20
128.9148051906271
 10
238.597774018204
 20
128.8911057878181
 10
238.6074705018169
 20
128.8675726819671
 10
238.617596138871
 20
128.8442118335411
 10
238.628150929368
 20
128.8210297990481
  0
LWPOLYLINE
  5
4FF
330
1F
100
AcDbEntity
  8
Sichtbare_Kanten_TC_020513_DIN_
  6
Continuous
 62
     7
100
AcDbPolyline
 90
       25
 70
     0
 43
0.5
 10
237.35932062999
 20
128.2293642926851
 10
237.338211048997
 20
128.2757286596941
 10
237.317959774888
 20
128.3224497605011
 10
237.298564423478
 20
128.3695159722011
 10
237.28003453151
 20
128.4169150758431
 10
237.262370098985
 20
128.4646354485191
 10
237.245578278458
 20
128.5126651693031
 10
237.229661454118
 20
128.5609917212171
 10
237.214624394334
 20
128.6096037793801
 10
237.200471867478
 20
128.6584891248391
 10
237.187206257737
 20
128.7076355386421
 10
237.1748323334811
 20
128.7570310998601
 10
237.163352478898
 20
128.8066644836111
 10
237.1527809991
 20
128.8564987350151
 10
237.143120278275
 20
128.9064957070991
 10
237.134372700608
 20
128.9566440749801
 10
237.1265382660989
 20
129.0069307256381
 10
237.119624127305
 20
129.0573425460501
 10
237.113625515855
 20
129.1078682113331
 10
237.108544815934
 20
129.1584946084661
 10
237.104386795914
 20
129.2092086244271
 10
237.1011490716099
 20
129.2599983382861
 10
237.098836411393
 20
129.3108512330691
 10
237.097446431077
 20
129.3617541957541
 10
237.096981514847
 20
129.4126953054111
  0
LWPOLYLINE
  5
500
330
1F
100
AcDbEntity
  8
Sichtbare_Kanten_TC_020513_DIN_
  6
Continuous
 62
     7
100
AcDbPolyline
 90
       25
 70
     0
 43
0.5
 10
237.189480770978
 20
140.9728725124041
 10
237.141723145398
 20
140.9734113383931
 10
237.093433846387
 20
140.9750313926381
 10
237.044643868359
 20
140.9777374435111
 10
236.995388974103
 20
140.9815342593831
 10
236.945704926404
 20
140.9864242244401
 10
236.8956274880489
 20
140.9924132991471
 10
236.845185269269
 20
140.9995050597831
 10
236.794418801221
 20
141.0077042747181
 10
236.7433590783199
 20
141.0170145202321
 10
236.69207285777
 20
141.0274357963241
 10
236.641821373853
 20
141.0387177634881
 10
236.593298424634
 20
141.0506315398851
 10
236.546599377545
 20
141.0630412269281
 10
236.5018172158319
 20
141.0758133102101
 10
236.459047306927
 20
141.0888130832361
 10
236.418382634076
 20
141.1019058395071
 10
236.379918564709
 20
141.1149580646201
 10
236.343752850445
 20
141.1278338599841
 10
236.309973706158
 20
141.1403997111961
 10
236.278678883466
 20
141.1525197196641
 10
236.249963749799
 20
141.1640615630791
 10
236.223921288403
 20
141.1748893428491
 10
236.200644482526
 20
141.1848695445701
 10
236.180228699597
 20
141.1938674617451
  0
LWPOLYLINE
  5
501
330
1F
100
AcDbEntity
  8
Sichtbare_Kanten_TC_020513_DIN_
  6
Continuous
 62
     7
100
AcDbPolyline
 90
       25
 70
     0
 43
0.5
 10
236.180228699597
 20
141.1938674617451
 10
236.1602826012689
 20
141.2027962375321
 10
236.1403102768981
 20
141.2117238212271
 10
236.1203188790399
 20
141.2206514049211
 10
236.100303639325
 20
141.2295789886161
 10
236.080269326123
 20
141.2385053802171
 10
236.060215939435
 20
141.2474329639121
 10
236.040141095074
 20
141.2563593555131
 10
236.020049561414
 20
141.2652869392081
 10
235.999941338452
 20
141.2742133308091
 10
235.97981642619
 20
141.2831409145041
 10
235.959674824628
 20
141.2920696902911
 10
235.9395165337641
 20
141.3009984660781
 10
235.919348706158
 20
141.3099260497731
 10
235.8991689576229
 20
141.3188548255601
 10
235.8789796723451
 20
141.3277824092551
 10
235.858783234509
 20
141.3367099929491
 10
235.8385772599301
 20
141.3456363845511
 10
235.818364132794
 20
141.3545639682451
 10
235.7981438531
 20
141.3634903598471
 10
235.7779211892211
 20
141.3724167514481
 10
235.7576913727841
 20
141.3813443351431
 10
235.7374567879759
 20
141.3902719188371
 10
235.717222203168
 20
141.3992006946251
 10
235.696982849988
 20
141.4081282783191
  0
LWPOLYLINE
  5
502
330
1F
100
AcDbEntity
  8
Sichtbare_Kanten_TC_020513_DIN_
  6
Continuous
 62
     7
100
AcDbPolyline
 90
       25
 70
     0
 43
0.5
 10
78.90137631141636
 20
111.3751156497641
 10
78.90151697837808
 20
111.3768263030691
 10
78.90208143436416
 20
111.3788194823901
 10
78.9032782956312
 20
111.3810069728531
 10
78.90514451705906
 20
111.3831360507651
 10
78.90749413215622
 20
111.3850004840531
 10
78.91022581302627
 20
111.3866193462051
 10
78.9132704182814
 20
111.3880260158221
 10
78.91659337722757
 20
111.3892538715051
 10
78.92013210498789
 20
111.3903148341821
 10
78.92382401668527
 20
111.3912255931541
 10
78.92760771953567
 20
111.3919992614431
 10
78.93144327842697
 20
111.3926537204431
 10
78.9353628798674
 20
111.3932128120101
 10
78.93933672153457
 20
111.3936860728901
 10
78.94333142482736
 20
111.3940806556381
 10
78.94731063091257
 20
111.3944025207201
 10
78.95124036514267
 20
111.3946600127861
 10
78.95508486473068
 20
111.3948590922991
 10
78.95880896293619
 20
111.3950081039111
 10
78.96237868511179
 20
111.3951142001791
 10
78.965758864517
 20
111.3951845336601
 10
78.96891373836502
 20
111.3952262569111
 10
78.9718087359617
 20
111.3952453303971
 10
78.9744086905668
 20
111.3952500987691
  0
LWPOLYLINE
  5
503
330
1F
100
AcDbEntity
  8
Sichtbare_Kanten_TC_020513_DIN_
  6
Continuous
 62
     7
100
AcDbPolyline
 90
       25
 70
     0
 43
0.5
 10
98.39506942474395
 20
111.3952500987691
 10
98.39767772399898
 20
111.3952453303971
 10
98.40056139671299
 20
111.3952274490041
 10
98.40368944847097
 20
111.3951881099381
 10
98.40702790462501
 20
111.3951225448291
 10
98.41054517471298
 20
111.3950212169331
 10
98.41420907222698
 20
111.3948781657851
 10
98.41798562251995
 20
111.3946874309221
 10
98.421843831177
 20
111.3944406676931
 10
98.42575091564197
 20
111.3941307235401
 10
98.42967349731396
 20
111.3937516379991
 10
98.43357998573299
 20
111.3932962585131
 10
98.43743759834297
 20
111.3927574325241
 10
98.44121414863599
 20
111.3921268153831
 10
98.44487625801099
 20
111.3913996387161
 10
98.44839233600601
 20
111.3905675578751
 10
98.45174450122795
 20
111.3896186519311
 10
98.45496792041797
 20
111.3885147739091
 10
98.45800239288297
 20
111.3872380424181
 10
98.46077520095798
 20
111.3857705760641
 10
98.46321303092896
 20
111.3841004539171
 10
98.46524435722301
 20
111.3822062183061
 10
98.46679467403396
 20
111.3800664115591
 10
98.467769806023
 20
111.3776905704181
 10
98.468101803894
 20
111.3751156497641
  0
LWPOLYLINE
  5
504
330
1F
100
AcDbEntity
  8
Sichtbare_Kanten_TC_020513_DIN_
  6
Continuous
 62
     7
100
AcDbPolyline
 90
       25
 70
     0
 43
0.5
 10
119.069270078773
 20
140.9728725124041
 10
119.083534662361
 20
140.9733815360711
 10
119.097281877632
 20
140.9749026466051
 10
119.110509340401
 20
140.9774251151721
 10
119.123217050667
 20
140.9809370208421
 10
119.135402624244
 20
140.9854300189661
 10
119.147070829506
 20
140.9908933807061
 10
119.158214513893
 20
140.9973139930411
 10
119.168840829964
 20
141.0046847034141
 10
119.178945009346
 20
141.0129923988031
 10
119.188517515297
 20
141.0222156215351
 10
119.197527353401
 20
141.0322995353381
 10
119.205988828773
 20
141.0432167220751
 10
119.213913862343
 20
141.0549433398881
 10
119.221316759224
 20
141.0674591231981
 10
119.228214208717
 20
141.0807390380541
 10
119.234579984779
 20
141.0946674514451
 10
119.240254346962
 20
141.1087043452901
 10
119.245258752937
 20
141.1226172614731
 10
119.249636118049
 20
141.1362345386191
 10
119.253431741829
 20
141.1493845153491
 10
119.256695692177
 20
141.1618955302881
 10
119.259468500252
 20
141.1735947299641
 10
119.261797849769
 20
141.1843092609091
 10
119.263731424446
 20
141.1938674617451
  0
LWPOLYLINE
  5
505
330
1F
100
AcDbEntity
  8
Sichtbare_Kanten_TC_020513_DIN_
  6
Continuous
 62
     7
100
AcDbPolyline
 90
       25
 70
     0
 43
0.5
 10
120.642723028297
 20
141.1938674617451
 10
120.639082376594
 20
141.1848373580611
 10
120.634771768684
 20
141.1748237777391
 10
120.629712526436
 20
141.1639602351821
 10
120.623823587532
 20
141.1523850131671
 10
120.61702150547
 20
141.1402292419121
 10
120.609227602119
 20
141.1276323962851
 10
120.600358430977
 20
141.1147256065051
 10
120.590332929725
 20
141.1016471553491
 10
120.579072420235
 20
141.0885317493121
 10
120.566495840187
 20
141.0755129028001
 10
120.55251974308
 20
141.0627277064961
 10
120.537063066597
 20
141.0503096748031
 10
120.520047132606
 20
141.0383958984061
 10
120.501388494606
 20
141.0271210838001
 10
120.481323186989
 20
141.0167546439811
 10
120.460189764137
 20
141.0074980426471
 10
120.437995378608
 20
140.9993477035211
 10
120.414751951332
 20
140.9922964740441
 10
120.39046901905
 20
140.9863431621231
 10
120.365153734321
 20
140.9814818072961
 10
120.33882040226
 20
140.9777088332811
 10
120.311478559608
 20
140.9750194717091
 10
120.283132974739
 20
140.9734089542071
 10
120.253800336952
 20
140.9728725124041
  0
LWPOLYLINE
  5
506
330
1F
100
AcDbEntity
  8
Sichtbare_Kanten_TC_020513_DIN_
  6
Continuous
 62
     7
100
AcDbPolyline
 90
       25
 70
     0
 43
0.5
 10
119.263731424446
 20
141.1938674617451
 10
119.265440885658
 20
141.2027962375321
 10
119.267078821297
 20
141.2117238212271
 10
119.268645231361
 20
141.2206514049211
 10
119.270140115852
 20
141.2295789886161
 10
119.271561090584
 20
141.2385053802171
 10
119.272908155556
 20
141.2474329639121
 10
119.27418607914
 20
141.2563593555131
 10
119.275387708778
 20
141.2652869392081
 10
119.276520197029
 20
141.2742133308091
 10
119.27757877552
 20
141.2831409145041
 10
119.278563444252
 20
141.2920696902911
 10
119.27947658741
 20
141.3009984660781
 10
119.280318204994
 20
141.3099260497731
 10
119.281083528633
 20
141.3188548255601
 10
119.281777326698
 20
141.3277824092551
 10
119.28239959919
 20
141.3367099929491
 10
119.282947961922
 20
141.3456363845511
 10
119.283422414894
 20
141.3545639682451
 10
119.283825342293
 20
141.3634903598471
 10
119.284154359932
 20
141.3724167514481
 10
119.284409467811
 20
141.3813443351431
 10
119.284593050117
 20
141.3902719188371
 10
119.284702722664
 20
141.3992006946251
 10
119.284738485451
 20
141.4081282783191
  0
LWPOLYLINE
  5
507
330
1F
100
AcDbEntity
  8
Sichtbare_Kanten_TC_020513_DIN_
  6
Continuous
 62
     7
100
AcDbPolyline
 90
       25
 70
     0
 43
0.5
 10
120.684739534492
 20
141.4081282783191
 10
120.684665624733
 20
141.3992006946251
 10
120.68444627964
 20
141.3902719188371
 10
120.684081499214
 20
141.3813443351431
 10
120.683568899269
 20
141.3724167514481
 10
120.682910863991
 20
141.3634903598471
 10
120.682107393379
 20
141.3545639682451
 10
120.681156103248
 20
141.3456363845511
 10
120.680059377785
 20
141.3367099929491
 10
120.678817216987
 20
141.3277824092551
 10
120.677429620857
 20
141.3188548255601
 10
120.675894205208
 20
141.3099260497731
 10
120.674215738411
 20
141.3009984660781
 10
120.672389452095
 20
141.2920696902911
 10
120.670417730446
 20
141.2831409145041
 10
120.668300573463
 20
141.2742133308091
 10
120.666037981148
 20
141.2652869392081
 10
120.663632337684
 20
141.2563593555131
 10
120.661078874702
 20
141.2474329639121
 10
120.658382360573
 20
141.2385053802171
 10
120.655538026924
 20
141.2295789886161
 10
120.652550642128
 20
141.2206514049211
 10
120.649420206184
 20
141.2117238212271
 10
120.646144334907
 20
141.2027962375321
 10
120.642723028297
 20
141.1938674617451
  0
LWPOLYLINE
  5
508
330
1F
100
AcDbEntity
  8
Sichtbare_Kanten_TC_020513_DIN_
  6
Continuous
 62
     7
100
AcDbPolyline
 90
       25
 70
     0
 43
0.5
 10
107.808221761818
 20
129.4126953054111
 10
107.798392955894
 20
129.3617541957541
 10
107.788568918342
 20
129.3108512330691
 10
107.778748457069
 20
129.2599983382861
 10
107.768929187889
 20
129.2092086244271
 10
107.759112302894
 20
129.1584946084661
 10
107.749296609993
 20
129.1078682113331
 10
107.739480917091
 20
129.0573425460501
 10
107.729664032097
 20
129.0069307256381
 10
107.719844762916
 20
128.9566440749801
 10
107.710024301643
 20
128.9064957070991
 10
107.700200264091
 20
128.8564987350151
 10
107.690371458168
 20
128.8066644836111
 10
107.680543844337
 20
128.7570310998601
 10
107.670718614693
 20
128.7076355386421
 10
107.660898153419
 20
128.6584891248391
 10
107.651080076332
 20
128.6096037793801
 10
107.641263191337
 20
128.5609917212171
 10
107.631446306343
 20
128.5126651693031
 10
107.621630613441
 20
128.4646354485191
 10
107.611813728447
 20
128.4169150758431
 10
107.601994459267
 20
128.3695159722011
 10
107.592173997993
 20
128.3224497605011
 10
107.582349960441
 20
128.2757286596941
 10
107.572521154518
 20
128.2293642926851
  0
LWPOLYLINE
  5
509
330
1F
100
AcDbEntity
  8
Sichtbare_Kanten_TC_020513_DIN_
  6
Continuous
 62
     7
100
AcDbPolyline
 90
       25
 70
     0
 43
0.5
 10
107.572521154518
 20
128.8210297990481
 10
107.582349960441
 20
128.8442118335411
 10
107.592173997993
 20
128.8675726819671
 10
107.601994459267
 20
128.8911057878181
 10
107.611813728447
 20
128.9148051906271
 10
107.621630613441
 20
128.9386655259771
 10
107.631446306343
 20
128.9626802373571
 10
107.641263191337
 20
128.9868433643021
 10
107.651080076332
 20
129.0111495423951
 10
107.660898153419
 20
129.0355922151251
 10
107.670718614693
 20
129.0601654220261
 10
107.680543844337
 20
129.0848632026351
 10
107.690371458168
 20
129.1096801925341
 10
107.700200264091
 20
129.1345973182361
 10
107.710024301643
 20
129.1595955062551
 10
107.719844762916
 20
129.1846699882191
 10
107.729664032097
 20
129.2098130155251
 10
107.739480917091
 20
129.2350192237541
 10
107.749296609993
 20
129.2602820563951
 10
107.759112302894
 20
129.2855949569391
 10
107.768929187889
 20
129.3109519649191
 10
107.778748457069
 20
129.3363471198721
 10
107.788568918342
 20
129.3617732692401
 10
107.798392955894
 20
129.3872250486061
 10
107.808221761818
 20
129.4126953054111
  0
LWPOLYLINE
  5
50A
330
1F
100
AcDbEntity
  8
Sichtbare_Kanten_TC_020513_DIN_
  6
Continuous
 62
     7
100
AcDbPolyline
 90
       25
 70
     0
 43
0.5
 10
106.306952421303
 20
142.1895094085381
 10
106.334582750435
 20
142.1858472991631
 10
106.362160627479
 20
142.1748991180101
 10
106.389706318016
 20
142.1567173171681
 10
106.417235319252
 20
142.1313591170951
 10
106.444765512581
 20
142.0988793540641
 10
106.472317163582
 20
142.0593316722551
 10
106.499905769462
 20
142.0127744842211
 10
106.527546827431
 20
141.9592673946061
 10
106.555162851448
 20
141.8990881610551
 10
106.582732383842
 20
141.8324716258691
 10
106.610272113914
 20
141.7595739532151
 10
106.637799923057
 20
141.6805524993581
 10
106.665333692665
 20
141.5955622363731
 10
106.692892496223
 20
141.5047629047081
 10
106.72049183094
 20
141.4083094764391
 10
106.748141233559
 20
141.3064022231741
 10
106.775775138969
 20
141.1995299029991
 10
106.803398315544
 20
141.0879702735581
 10
106.83102626049
 20
140.9719438720391
 10
106.858678047294
 20
140.8516807723681
 10
106.88631791317
 20
140.7276387382191
 10
106.913941089744
 20
140.6001682449021
 10
106.941566650505
 20
140.4695232082051
 10
106.969212476845
 20
140.3359563518211
  0
LWPOLYLINE
  5
50B
330
1F
100
AcDbEntity
  8
Sichtbare_Kanten_TC_020513_DIN_
  6
Continuous
 62
     7
100
AcDbPolyline
 90
       25
 70
     0
 43
0.5
 10
106.969212476845
 20
140.3359563518211
 10
106.986119930382
 20
140.2592845130601
 10
107.004223053093
 20
140.1870401073141
 10
107.023205940361
 20
140.1192434001601
 10
107.042752687569
 20
140.0559110809011
 10
107.062545005913
 20
139.9970646072071
 10
107.082266990776
 20
139.9427242446581
 10
107.101602737541
 20
139.8929078746481
 10
107.120249454612
 20
139.8475999999681
 10
107.13877100193
 20
139.8050196338341
 10
107.157502357597
 20
139.7641749549551
 10
107.17633504116
 20
139.7250945735611
 10
107.195158187981
 20
139.6878035236041
 10
107.213864509697
 20
139.6523292232201
 10
107.232344333763
 20
139.6186967063591
 10
107.250487987633
 20
139.5869321990651
 10
107.268185798759
 20
139.5570643115681
 10
107.28532928669
 20
139.5291168857261
 10
107.30180997097
 20
139.5031185317681
 10
107.317516986961
 20
139.4790942836441
 10
107.332343046303
 20
139.4570703674001
 10
107.346177284355
 20
139.4370730090781
 10
107.358911220665
 20
139.4191308189071
 10
107.370435182686
 20
139.4032664466541
 10
107.380640689964
 20
139.3895096946401
  0
LWPOLYLINE
  5
50C
330
1F
100
AcDbEntity
  8
Sichtbare_Kanten_TC_020513_DIN_
  6
Continuous
 62
     7
100
AcDbPolyline
 90
       25
 70
     0
 43
0.5
 10
106.969212476845
 20
139.8627336192771
 10
106.941557113762
 20
139.9295408893271
 10
106.913955394859
 20
139.9948043990771
 10
106.886391822929
 20
140.0584037471451
 10
106.858847324486
 20
140.1202197242421
 10
106.831305210228
 20
140.1801331210771
 10
106.803745214577
 20
140.2380247283621
 10
106.776151840324
 20
140.2937753368061
 10
106.748507206077
 20
140.3472645450271
 10
106.720841114158
 20
140.3982825446771
 10
106.693231050606
 20
140.4465599227591
 10
106.665662710304
 20
140.4920120406791
 10
106.638115827675
 20
140.5345602203051
 10
106.61057490551
 20
140.5741245914141
 10
106.58301967823
 20
140.6106276679681
 10
106.555433456535
 20
140.6439883876481
 10
106.527798359032
 20
140.6741292644181
 10
106.500126306648
 20
140.7009418178241
 10
106.472501937981
 20
140.7242758441611
 10
106.444918100471
 20
140.7440943885491
 10
106.417354528541
 20
140.7603712249441
 10
106.38979453289
 20
140.7730789352101
 10
106.362219040031
 20
140.7821889091171
 10
106.334611360664
 20
140.7876749206231
 10
106.306952421303
 20
140.7895095515891
  0
LWPOLYLINE
  5
50D
330
1F
100
AcDbEntity
  8
Sichtbare_Kanten_TC_020513_DIN_
  6
Continuous
 62
     7
100
AcDbPolyline
 90
       25
 70
     0
 43
0.5
 10
107.380640689964
 20
139.3895096946401
 10
107.366734926338
 20
139.3988962340991
 10
107.350975458259
 20
139.4098324943231
 10
107.333557788963
 20
139.4223077464741
 10
107.314676229591
 20
139.4363136459031
 10
107.294526283378
 20
139.4518394637741
 10
107.273302261467
 20
139.4688756633441
 10
107.251200859184
 20
139.4874115157761
 10
107.228415195579
 20
139.5074362922351
 10
107.205140773888
 20
139.5289428401631
 10
107.181573097343
 20
139.5519192386311
 10
107.157906477089
 20
139.5763559508961
 10
107.134336416359
 20
139.6022434402151
 10
107.111122791405
 20
139.6294899154351
 10
107.089578096504
 20
139.6565325427691
 10
107.070080225105
 20
139.6827013660111
 10
107.052521888847
 20
139.7079010177291
 10
107.036796991463
 20
139.7320301700271
 10
107.022801820869
 20
139.7549910712881
 10
107.010429088707
 20
139.7766871619861
 10
106.999572698707
 20
139.7970183063191
 10
106.990128938789
 20
139.8158867526691
 10
106.981991712684
 20
139.8331947494191
 10
106.975054924126
 20
139.8488421607651
 10
106.969212476845
 20
139.8627336192771
  0
LWPOLYLINE
  5
50E
330
1F
100
AcDbEntity
  8
Sichtbare_Kanten_TC_020513_DIN_
  6
Continuous
 62
     7
100
AcDbPolyline
 90
       25
 70
     0
 43
0.5
 10
70.40026563846567
 20
139.8627336192771
 10
70.39442319118479
 20
139.8488421607651
 10
70.38748640262588
 20
139.8331947494191
 10
70.37934917652109
 20
139.8158867526691
 10
70.36990541660288
 20
139.7970183063191
 10
70.35904902660349
 20
139.7766871619861
 10
70.34667629444107
 20
139.7549910712881
 10
70.3326811238478
 20
139.7320301700271
 10
70.31695622646316
 20
139.7079010177291
 10
70.29939789020517
 20
139.6827013660111
 10
70.2799000188063
 20
139.6565325427691
 10
70.25835532390579
 20
139.6294899154351
 10
70.23514169895157
 20
139.6022434402151
 10
70.21157163822159
 20
139.5763559508961
 10
70.18790501796695
 20
139.5519192386311
 10
70.16433734142288
 20
139.5289428401631
 10
70.14106291973098
 20
139.5074362922351
 10
70.11827725612619
 20
139.4874115157761
 10
70.09617585384348
 20
139.4688756633441
 10
70.07495183193191
 20
139.4518394637741
 10
70.05480188571909
 20
139.4363136459031
 10
70.0359203263472
 20
139.4223077464741
 10
70.01850265705087
 20
139.4098324943231
 10
70.00274318897232
 20
139.3988962340991
 10
69.98883742534616
 20
139.3895096946401
  0
LWPOLYLINE
  5
50F
330
1F
100
AcDbEntity
  8
Sichtbare_Kanten_TC_020513_DIN_
  6
Continuous
 62
     7
100
AcDbPolyline
 90
       25
 70
     0
 43
0.5
 10
69.98883742534616
 20
139.3895096946401
 10
69.99904293262455
 20
139.4032664466541
 10
70.01056689464548
 20
139.4191308189071
 10
70.0233008309553
 20
139.4370730090781
 10
70.03713506900772
 20
139.4570703674001
 10
70.05196112834909
 20
139.4790942836441
 10
70.0676681443403
 20
139.5031185317681
 10
70.0841488286207
 20
139.5291168857261
 10
70.101292316551
 20
139.5570643115681
 10
70.11899012767776
 20
139.5869321990651
 10
70.13713378154739
 20
139.6186967063591
 10
70.1556136056135
 20
139.6523292232201
 10
70.17431992732986
 20
139.6878035236041
 10
70.19314307414987
 20
139.7250945735611
 10
70.21197575771316
 20
139.7641749549551
 10
70.23070711338028
 20
139.8050196338341
 10
70.24922866069778
 20
139.8475999999681
 10
70.26787537776931
 20
139.8929078746481
 10
70.2872111245344
 20
139.9427242446581
 10
70.30693310939768
 20
139.9970646072071
 10
70.32672542774179
 20
140.0559110809011
 10
70.34627217494949
 20
140.1192434001601
 10
70.3652550622175
 20
140.1870412994071
 10
70.38335818492868
 20
140.2592845130601
 10
70.40026563846567
 20
140.3359563518211
  0
LWPOLYLINE
  5
510
330
1F
100
AcDbEntity
  8
Sichtbare_Kanten_TC_020513_DIN_
  6
Continuous
 62
     7
100
AcDbPolyline
 90
       25
 70
     0
 43
0.5
 10
71.06252569400772
 20
140.7895095515891
 10
71.03486913883188
 20
140.7876749206231
 10
71.00726861202219
 20
140.7821912933031
 10
70.97970504009231
 20
140.7730860877671
 10
70.95216054164871
 20
140.7603902984301
 10
70.924617235298
 20
140.7441325355211
 10
70.8970584317396
 20
140.7243402171771
 10
70.86946505748728
 20
140.7010443378131
 10
70.84181923114761
 20
140.6742735076591
 10
70.8141543313215
 20
140.6441147494951
 10
70.7865442677687
 20
140.6107361484211
 10
70.75897592746719
 20
140.5742247272171
 10
70.7314290448378
 20
140.5346603561081
 10
70.70388693057998
 20
140.4921264815971
 10
70.67633289539322
 20
140.4467053580921
 10
70.64874667369816
 20
140.3984780479111
 10
70.62111038410171
 20
140.3475279975571
 10
70.59343952381118
 20
140.2939982581781
 10
70.56581515514358
 20
140.2381951976461
 10
70.53823131763437
 20
140.1802559066461
 10
70.5106677457045
 20
140.1203007865591
 10
70.4831065579603
 20
140.0584514308611
 10
70.45553225719436
 20
139.9948258567491
 10
70.4279233857344
 20
139.9295468497911
 10
70.40026563846567
 20
139.8627336192771
  0
LWPOLYLINE
  5
511
330
1F
100
AcDbEntity
  8
Sichtbare_Kanten_TC_020513_DIN_
  6
Continuous
 62
     7
100
AcDbPolyline
 90
       25
 70
     0
 43
0.5
 10
70.40026563846567
 20
140.3359563518211
 10
70.42789477550491
 20
140.4694469142601
 10
70.45547384464248
 20
140.5998714137711
 10
70.48301834308609
 20
140.7269902396841
 10
70.51054734432199
 20
140.8505637813251
 10
70.5380787297438
 20
140.9703512359301
 10
70.56562918865188
 20
141.0861153770131
 10
70.59321779453256
 20
141.1976142097161
 10
70.6208588525007
 20
141.3045950103441
 10
70.64847606861099
 20
141.4064760375661
 10
70.6760456010054
 20
141.5029258895561
 10
70.70358533107736
 20
141.5937788654011
 10
70.73111314022049
 20
141.6788692641891
 10
70.75864690982797
 20
141.7580313850091
 10
70.78620571338638
 20
141.8311019111321
 10
70.81380504810318
 20
141.8979151416461
 10
70.84145325862869
 20
141.9582815337821
 10
70.8690883561323
 20
142.0118947196641
 10
70.89671034061416
 20
142.0586283374471
 10
70.92433947765329
 20
142.0983917880701
 10
70.95199126445749
 20
142.1310944724721
 10
70.9796299382399
 20
142.1566052604361
 10
71.0072543069075
 20
142.1748657394091
 10
71.034879867668
 20
142.1858437228841
 10
71.06252569400772
 20
142.1895094085381
  0
LWPOLYLINE
  5
512
330
1F
100
AcDbEntity
  8
Sichtbare_Kanten_TC_020513_DIN_
  6
Continuous
 62
     7
100
AcDbPolyline
 90
       25
 70
     0
 43
0.5
 10
58.10574669086441
 20
141.1938674617451
 10
58.10757297718027
 20
141.1847837138811
 10
58.10971159183487
 20
141.1748047042531
 10
58.1121982976149
 20
141.1640496421501
 10
58.11507839405039
 20
141.1526425052331
 10
58.1183924122999
 20
141.1407036948841
 10
58.1221761151503
 20
141.1283548045791
 10
58.12647718631729
 20
141.1157186198871
 10
58.1313313885878
 20
141.1029155421891
 10
58.136781637306
 20
141.0900683570541
 10
58.14286607944467
 20
141.0772986579581
 10
58.14963001453378
 20
141.0647280383751
 10
58.1571092053602
 20
141.0524780917801
 10
58.16534895145401
 20
141.0406704116501
 10
58.1743850156019
 20
141.0294277835531
 10
58.1841911717604
 20
141.0189433265371
 10
58.19461960041031
 20
141.0094661880181
 10
58.2056726857374
 20
141.0010273624101
 10
58.21735996448501
 20
140.9936471152941
 10
58.22968620502456
 20
140.9873469043411
 10
58.24264187061289
 20
140.9821565318741
 10
58.25617927753427
 20
140.9781058002161
 10
58.2702888890455
 20
140.9752030540151
 10
58.28496832096079
 20
140.9734566379231
 10
58.30020803653702
 20
140.9728725124041
  0
LWPOLYLINE
  5
513
330
1F
100
AcDbEntity
  8
Sichtbare_Kanten_TC_020513_DIN_
  6
Continuous
 62
     7
100
AcDbPolyline
 90
       25
 70
     0
 43
0.5
 10
57.1156777783583
 20
140.9728725124041
 10
57.0862616940687
 20
140.9734113383931
 10
57.057839815254
 20
140.9750313926381
 10
57.03042406284305
 20
140.9777374435111
 10
57.00402397357919
 20
140.9815342593831
 10
56.97864908420547
 20
140.9864242244401
 10
56.95430893146499
 20
140.9924132991471
 10
56.93101782047256
 20
140.9995050597831
 10
56.9087805195997
 20
141.0077042747181
 10
56.88761133396127
 20
141.0170145202321
 10
56.86752695285776
 20
141.0274357963241
 10
56.848939840431
 20
141.0387177634881
 10
56.83199066364267
 20
141.0506315398851
 10
56.81659359180429
 20
141.0630412269281
 10
56.80267233097061
 20
141.0758133102101
 10
56.79014581882461
 20
141.0888130832361
 10
56.77893060886368
 20
141.1019058395071
 10
56.7689456387709
 20
141.1149580646201
 10
56.76011461460098
 20
141.1278338599841
 10
56.75235170566538
 20
141.1403997111961
 10
56.7455782338331
 20
141.1525197196641
 10
56.7397131367872
 20
141.1640615630791
 10
56.73467535221079
 20
141.1748893428491
 10
56.73038143360117
 20
141.1848695445701
 10
56.72675508701309
 20
141.1938674617451
  0
LWPOLYLINE
  5
514
330
1F
100
AcDbEntity
  8
Sichtbare_Kanten_TC_020513_DIN_
  6
Continuous
 62
     7
100
AcDbPolyline
 90
       25
 70
     0
 43
0.5
 10
58.08473962985966
 20
141.4081282783191
 10
58.08477539264658
 20
141.3992006946251
 10
58.08488506519296
 20
141.3902719188371
 10
58.08506864749887
 20
141.3813443351431
 10
58.08532375537857
 20
141.3724167514481
 10
58.08565277301767
 20
141.3634903598471
 10
58.08605570041641
 20
141.3545639682451
 10
58.08653015338877
 20
141.3456363845511
 10
58.0870785161207
 20
141.3367099929491
 10
58.08770078861221
 20
141.3277824092551
 10
58.0883945866774
 20
141.3188548255601
 10
58.08915991031631
 20
141.3099260497731
 10
58.09000152790048
 20
141.3009984660781
 10
58.0909146710585
 20
141.2920696902911
 10
58.09189933979019
 20
141.2831409145041
 10
58.0929579182814
 20
141.2742133308091
 10
58.09409040653208
 20
141.2652869392081
 10
58.0952920361708
 20
141.2563593555131
 10
58.09656995975479
 20
141.2474329639121
 10
58.09791702472671
 20
141.2385053802171
 10
58.0993379994581
 20
141.2295789886161
 10
58.10083288394907
 20
141.2206514049211
 10
58.10239929401377
 20
141.2117238212271
 10
58.10403722965219
 20
141.2027962375321
 10
58.10574669086441
 20
141.1938674617451
  0
LWPOLYLINE
  5
515
330
1F
100
AcDbEntity
  8
Sichtbare_Kanten_TC_020513_DIN_
  6
Continuous
 62
     7
100
AcDbPolyline
 90
       25
 70
     0
 43
0.5
 10
56.72675508701309
 20
141.1938674617451
 10
56.72333378040298
 20
141.2027962375321
 10
56.72005790912607
 20
141.2117238212271
 10
56.71692747318247
 20
141.2206514049211
 10
56.71394008838638
 20
141.2295789886161
 10
56.7110957547377
 20
141.2385053802171
 10
56.708399240608
 20
141.2474329639121
 10
56.70584577762588
 20
141.2563593555131
 10
56.70344013416269
 20
141.2652869392081
 10
56.70117754184707
 20
141.2742133308091
 10
56.6990603848646
 20
141.2831409145041
 10
56.69708866321548
 20
141.2920696902911
 10
56.69526237689956
 20
141.3009984660781
 10
56.69358391010269
 20
141.3099260497731
 10
56.69204849445328
 20
141.3188548255601
 10
56.6906608983229
 20
141.3277824092551
 10
56.68941873752578
 20
141.3367099929491
 10
56.68832201206186
 20
141.3456363845511
 10
56.6873707219313
 20
141.3545639682451
 10
56.68656725131967
 20
141.3634903598471
 10
56.68590921604141
 20
141.3724167514481
 10
56.68539661609628
 20
141.3813443351431
 10
56.68503183567026
 20
141.3902719188371
 10
56.68481249057749
 20
141.3992006946251
 10
56.68473858081796
 20
141.4081282783191
  0
LWPOLYLINE
  5
516
330
1F
100
AcDbEntity
  8
Sichtbare_Kanten_TC_020513_DIN_
  6
Continuous
 62
     7
100
AcDbPolyline
 90
       25
 70
     0
 43
0.5
 10
69.56125635349258
 20
129.4126953054111
 10
69.57108515941599
 20
129.3872250486061
 10
69.58090919696787
 20
129.3617732692401
 10
69.59072965824112
 20
129.3363471198721
 10
69.60054892742141
 20
129.3109519649191
 10
69.61036581241586
 20
129.2855949569391
 10
69.62018150531748
 20
129.2602820563951
 10
69.62999719821909
 20
129.2350192237541
 10
69.6398140832136
 20
129.2098130155251
 10
69.64963335239389
 20
129.1846699882191
 10
69.65945381366708
 20
129.1595955062551
 10
69.66927785121896
 20
129.1345973182361
 10
69.67910665714248
 20
129.1096801925341
 10
69.688934270973
 20
129.0848632026351
 10
69.69875950061777
 20
129.0601654220261
 10
69.70857996189096
 20
129.0355922151251
 10
69.71839803897836
 20
129.0111495423951
 10
69.72821492397287
 20
128.9868433643021
 10
69.73803180896738
 20
128.9626802373571
 10
69.74784750186899
 20
128.9386655259771
 10
69.7576643868635
 20
128.9148051906271
 10
69.7674836560438
 20
128.8911057878181
 10
69.77730411731699
 20
128.8675726819671
 10
69.78712815486887
 20
128.8442118335411
 10
69.79695696079239
 20
128.8210297990481
  0
LWPOLYLINE
  5
517
330
1F
100
AcDbEntity
  8
Sichtbare_Kanten_TC_020513_DIN_
  6
Continuous
 62
     7
100
AcDbPolyline
 90
       25
 70
     0
 43
0.5
 10
69.79695696079239
 20
128.2293642926851
 10
69.78712815486887
 20
128.2757286596941
 10
69.77730411731699
 20
128.3224497605011
 10
69.7674836560438
 20
128.3695159722011
 10
69.7576643868635
 20
128.4169150758431
 10
69.74784750186899
 20
128.4646354485191
 10
69.73803180896738
 20
128.5126651693031
 10
69.72821492397287
 20
128.5609917212171
 10
69.71839803897836
 20
128.6096037793801
 10
69.70857996189096
 20
128.6584891248391
 10
69.69875950061777
 20
128.7076355386421
 10
69.688934270973
 20
128.7570310998601
 10
69.67910665714248
 20
128.8066644836111
 10
69.66927785121896
 20
128.8564987350151
 10
69.65945381366708
 20
128.9064957070991
 10
69.64963335239389
 20
128.9566440749801
 10
69.6398140832136
 20
129.0069307256381
 10
69.62999719821909
 20
129.0573425460501
 10
69.62018150531748
 20
129.1078682113331
 10
69.61036581241586
 20
129.1584946084661
 10
69.60054892742141
 20
129.2092086244271
 10
69.59072965824112
 20
129.2599983382861
 10
69.58090919696787
 20
129.3108512330691
 10
69.57108515941599
 20
129.3617541957541
 10
69.56125635349258
 20
129.4126953054111
  0
SOLID
  5
518
330
1F
100
AcDbEntity
  8
1
 62
     2
100
AcDbTrace
 10
232.8967338627299
 20
76.00887745121989
 30
0.0
 11
232.3943968265985
 21
75.39926840725263
 31
0.0
 12
230.3303451432299
 22
77.611887233321
 32
0.0
 13
230.3303451432299
 23
77.611887233321
 33
0.0
  0
LEADER
  5
519
330
1F
100
AcDbEntity
  8
1
  6
Continuous
 62
     2
100
AcDbLeader
  3
Standard
 71
     0
 76
     3
 10
230.3303451432299
 20
77.611887233321
 30
0.0
 10
255.96523484655
 20
56.4879314085884
 30
0.0
 10
266.418602122555
 20
56.4737390443867
 30
0.0
  0
MTEXT
  5
51A
330
1F
100
AcDbEntity
  8
1
 62
     7
100
AcDbMText
 10
256.6763006887431
 20
10.0606394207561
 30
0.0
 40
4.5
 41
0.0
 71
     5
 72
     1
  1
1:1
  7
CONVERTER_11
 73
     1
 44
0.75727272727273
  0
MTEXT
  5
51B
330
1F
100
AcDbEntity
  8
1
 62
     7
100
AcDbMText
 10
119.6
 20
7.49999999999987
 30
0.0
 40
3.0
 41
0.0
 71
     4
 72
     1
  1
Pezzimenti
  7
CONVERTER_11
 73
     1
 44
0.75727272727273
  0
MTEXT
  5
51C
330
1F
100
AcDbEntity
  8
1
 62
     7
100
AcDbMText
 10
119.6
 20
12.4999999999999
 30
0.0
 40
3.0
 41
0.0
 71
     4
 72
     1
  1
08/08/14
  7
CONVERTER_11
 73
     1
 44
0.75727272727273
  0
MTEXT
  5
51D
330
1F
100
AcDbEntity
  8
1
 62
     7
100
AcDbMText
 10
144.276300688743
 20
12.5
 30
0.0
 40
4.5
 41
0.0
 71
     4
 72
     1
  1
C7P 06 L \Psurface mounting h. 1 lev. PG16.
  7
CONVERTER_11
 73
     1
 44
0.75727272727273
  0
MTEXT
  5
51F
330
1F
100
AcDbEntity
  8
Symbole_TC_020513_DIN_
 62
     7
100
AcDbMText
 10
250.154417096578
 20
58.7017794821945
 30
0.0
 40
3.49999994039535
 41
0.0
 71
     1
 72
     1
  1
 
  7
CONVERTER_13
 73
     1
 44
0.75727272727273
  0
MTEXT
  5
521
330
1F
100
AcDbEntity
  8
1
 62
     4
100
AcDbMText
 10
256.268595915189
 20
58.8904071889977
 30
0.0
 40
3.5
 41
0.0
 71
     7
 72
     1
  1
\U+00f85,5
  7
CONVERTER_14
 73
     1
 44
1.32052821128451
  0
DIMENSION
  5
52C
330
1F
100
AcDbEntity
  8
1
100
AcDbDimension
  2
*D2
 10
123.684739057655
 20
63.1179588728187
 30
0.0
 11
88.68473905765507
 21
66.6179588728187
 31
0.0
 70
    32
  1
<>
 71
     5
 42
-1.0
 53
0.00013888888889
  3
ME10_DIM_10
100
AcDbAlignedDimension
 13
53.68473905765518
 23
75.111887233321
 33
0.0
 14
123.684739057655
 24
75.111887233321
 34
0.0
100
AcDbRotatedDimension
  0
DIMENSION
  5
537
330
1F
100
AcDbEntity
  8
1
100
AcDbDimension
  2
*D3
 10
129.684739057655
 20
51.951173597729
 30
0.0
 11
88.68473905765507
 21
55.451173597729
 31
0.0
 70
    32
  1
<>
 71
     5
 42
-1.0
 53
0.00013888888889
  3
ME10_DIM_11
100
AcDbAlignedDimension
 13
47.68473905765518
 23
77.611887233321
 33
0.0
 14
129.684739057655
 24
77.611887233321
 34
0.0
100
AcDbRotatedDimension
  0
DIMENSION
  5
542
330
1F
100
AcDbEntity
  8
1
100
AcDbDimension
  2
*D4
 10
230.33034514323
 20
62.92542809221371
 30
0.0
 11
210.33034514323
 21
66.4254280922137
 31
0.0
 70
    32
  1
<>
 71
     5
 42
-1.0
 53
0.00013888888889
  3
ME10_DIM_12
100
AcDbAlignedDimension
 13
190.33034514323
 23
75.111887233321
 33
0.0
 14
230.3303451432299
 24
75.111887233321
 34
0.0
100
AcDbRotatedDimension
  0
DIMENSION
  5
54D
330
1F
100
AcDbEntity
  8
1
100
AcDbDimension
  2
*D5
 10
236.330345143228
 20
53.298889061964
 30
0.0
 11
210.330345143228
 21
56.798889061964
 31
0.0
 70
    32
  1
<>
 71
     5
 42
-1.0
 53
0.00013888888889
  3
ME10_DIM_13
100
AcDbAlignedDimension
 13
184.330345143228
 23
77.611887233321
 33
0.0
 14
236.330345143228
 24
77.611887233321
 34
0.0
100
AcDbRotatedDimension
  0
DIMENSION
  5
55A
330
1F
100
AcDbEntity
  8
1
100
AcDbDimension
  2
*D6
 10
251.9733799690987
 20
77.611887233321
 30
0.0
 11
248.4733799690987
 21
79.611887233321
 31
0.0
 70
    32
  1
<>
 71
     5
 42
-1.0
 53
90.0
  3
ME10_DIM_14
100
AcDbAlignedDimension
 13
236.330345143228
 23
81.611887233321
 33
0.0
 14
236.330345143228
 24
77.611887233321
 34
0.0
 50
90.0
100
AcDbRotatedDimension
  0
DIMENSION
  5
565
330
1F
100
AcDbEntity
  8
1
100
AcDbDimension
  2
*D7
 10
173.739848467964
 20
130.6118872333212
 30
0.0
 11
170.239848467964
 21
104.1118872333211
 31
0.0
 70
    32
  1
<>
 71
     5
 42
-1.0
 53
90.0
  3
ME10_DIM_15
100
AcDbAlignedDimension
 13
184.330345143228
 23
77.611887233321
 33
0.0
 14
188.2803451432339
 24
130.6118872333211
 34
0.0
 50
90.0
100
AcDbRotatedDimension
  0
DIMENSION
  5
570
330
1F
100
AcDbEntity
  8
1
100
AcDbDimension
  2
*D8
 10
184.330345143228
 20
158.135395792742
 30
0.0
 11
220.2973201290895
 21
161.635395792742
 31
0.0
 70
    32
  1
70
 71
     5
 42
-1.0
 53
0.00013888888889
  3
ME10_DIM_16
100
AcDbAlignedDimension
 13
256.264295114951
 23
112.6118872333211
 33
0.0
 14
184.330345143228
 24
81.611887233321
 34
0.0
100
AcDbRotatedDimension
  0
DIMENSION
  5
57B
330
1F
100
AcDbEntity
  8
1
100
AcDbDimension
  2
*D9
 10
32.2671300803576
 20
77.61188723332104
 30
0.0
 11
28.7671300803576
 21
113.1118872333211
 31
0.0
 70
    32
  1
<>
 71
     5
 42
-1.0
 53
90.0
  3
ME10_DIM_17
100
AcDbAlignedDimension
 13
56.68473905765518
 23
148.6118872333211
 33
0.0
 14
47.68473905765518
 24
77.611887233321
 34
0.0
 50
90.0
100
AcDbRotatedDimension
  0
DIMENSION
  5
586
330
1F
100
AcDbEntity
  8
1
100
AcDbDimension
  2
*D10
 10
124.684739057655
 20
159.316206635965
 30
0.0
 11
88.68473905765507
 21
162.816206635965
 31
0.0
 70
    32
  1
<>
 71
     5
 42
-1.0
 53
0.00013888888889
  3
ME10_DIM_18
100
AcDbAlignedDimension
 13
52.68473905765518
 23
127.6118872333211
 33
0.0
 14
124.684739057655
 24
127.6118872333211
 34
0.0
100
AcDbRotatedDimension
  0
DIMENSION
  5
591
330
1F
100
AcDbEntity
  8
1
100
AcDbDimension
  2
*D11
 10
142.345437695076
 20
105.9338872333211
 30
0.0
 11
138.845437695076
 21
94.1918872333211
 31
0.0
 70
    32
  1
PG16
 71
     5
 42
-1.0
 53
90.0
  3
ME10_DIM_19
100
AcDbAlignedDimension
 13
130.084739057655
 23
82.44988723332109
 33
0.0
 14
130.184739057655
 24
105.9338872333211
 34
0.0
 50
90.0
100
AcDbRotatedDimension
  0
ENDSEC
  0
SECTION
  2
OBJECTS
  0
DICTIONARY
  5
C
330
0
100
AcDbDictionary
281
     1
  3
ACAD_GROUP
350
D
  3
ACAD_LAYOUT
350
1A
  3
ACAD_MATERIAL
350
3B
  3
ACAD_MLEADERSTYLE
350
594
  3
ACAD_MLINESTYLE
350
17
  3
ACAD_PLOTSETTINGS
350
19
  3
ACAD_PLOTSTYLENAME
350
E
  3
ACAD_VISUALSTYLE
350
2A
  3
AcDbVariableDictionary
350
592
  0
DICTIONARY
  5
D
102
{ACAD_REACTORS
330
C
102
}
330
C
100
AcDbDictionary
281
     1
  0
DICTIONARY
  5
1A
102
{ACAD_REACTORS
330
C
102
}
330
C
100
AcDbDictionary
281
     1
  3
Layout1
350
1E
  3
Layout2
350
26
  3
Model
350
22
  0
DICTIONARY
  5
3B
102
{ACAD_REACTORS
330
C
102
}
330
C
100
AcDbDictionary
281
     1
  3
ByBlock
350
3D
  3
ByLayer
350
3C
  3
Global
350
3E
  0
DICTIONARY
  5
594
102
{ACAD_REACTORS
330
C
102
}
330
C
100
AcDbDictionary
281
     1
  0
DICTIONARY
  5
17
102
{ACAD_REACTORS
330
C
102
}
330
C
100
AcDbDictionary
281
     1
  3
Standard
350
18
  0
DICTIONARY
  5
19
102
{ACAD_REACTORS
330
C
102
}
330
C
100
AcDbDictionary
281
     1
  0
ACDBDICTIONARYWDFLT
  5
E
102
{ACAD_REACTORS
330
C
102
}
330
C
100
AcDbDictionary
281
     1
  3
Normal
350
F
100
AcDbDictionaryWithDefault
340
F
  0
DICTIONARY
  5
2A
102
{ACAD_REACTORS
330
C
102
}
330
C
100
AcDbDictionary
281
     1
  3
2dWireframe
350
2F
  3
3D Hidden
350
31
  3
3dWireframe
350
30
  3
Basic
350
32
  3
Brighten
350
36
  3
ColorChange
350
3A
  3
Conceptual
350
34
  3
Dim
350
35
  3
Facepattern
350
39
  3
Flat
350
2B
  3
FlatWithEdges
350
2C
  3
Gouraud
350
2D
  3
GouraudWithEdges
350
2E
  3
Linepattern
350
38
  3
Realistic
350
33
  3
Thicken
350
37
  0
DICTIONARY
  5
592
102
{ACAD_REACTORS
330
C
102
}
330
C
100
AcDbDictionary
281
     1
  3
DIMASSOC
350
595
  3
HIDETEXT
350
596
  0
LAYOUT
  5
1E
102
{ACAD_REACTORS
330
1A
102
}
330
1A
100
AcDbPlotSettings
  1

  2
none_device
  4

  6

 40
0.0
 41
0.0
 42
0.0
 43
0.0
 44
0.0
 45
0.0
 46
0.0
 47
0.0
 48
0.0
 49
0.0
140
0.0
141
0.0
142
1.0
143
1.0
 70
   688
 72
     0
 73
     0
 74
     5
  7

 75
    16
147
1.0
148
0.0
149
0.0
100
AcDbLayout
  1
Layout1
 70
     1
 71
     1
 10
0.0
 20
0.0
 11
12.0
 21
9.0
 12
0.0
 22
0.0
 32
0.0
 14
1.00000000000000E+20
 24
1.00000000000000E+20
 34
1.00000000000000E+20
 15
-1.00000000000000E+20
 25
-1.00000000000000E+20
 35
-1.00000000000000E+20
146
0.0
 13
0.0
 23
0.0
 33
0.0
 16
1.0
 26
0.0
 36
0.0
 17
0.0
 27
1.0
 37
0.0
 76
     0
330
1B
  0
LAYOUT
  5
26
102
{ACAD_REACTORS
330
1A
102
}
330
1A
100
AcDbPlotSettings
  1

  2
none_device
  4

  6

 40
0.0
 41
0.0
 42
0.0
 43
0.0
 44
0.0
 45
0.0
 46
0.0
 47
0.0
 48
0.0
 49
0.0
140
0.0
141
0.0
142
1.0
143
1.0
 70
   688
 72
     0
 73
     0
 74
     5
  7

 75
    16
147
1.0
148
0.0
149
0.0
100
AcDbLayout
  1
Layout2
 70
     1
 71
     2
 10
0.0
 20
0.0
 11
0.0
 21
0.0
 12
0.0
 22
0.0
 32
0.0
 14
0.0
 24
0.0
 34
0.0
 15
0.0
 25
0.0
 35
0.0
146
0.0
 13
0.0
 23
0.0
 33
0.0
 16
1.0
 26
0.0
 36
0.0
 17
0.0
 27
1.0
 37
0.0
 76
     0
330
23
  0
LAYOUT
  5
22
102
{ACAD_REACTORS
330
1A
102
}
330
1A
100
AcDbPlotSettings
  1

  2
none_device
  4

  6

 40
0.0
 41
0.0
 42
0.0
 43
0.0
 44
0.0
 45
0.0
 46
0.0
 47
0.0
 48
0.0
 49
0.0
140
0.0
141
0.0
142
1.0
143
1.0
 70
  1712
 72
     0
 73
     0
 74
     0
  7

 75
     0
147
1.0
148
0.0
149
0.0
100
AcDbLayout
  1
Model
 70
     1
 71
     0
 10
0.0
 20
0.0
 11
12.0
 21
9.0
 12
0.0
 22
0.0
 32
0.0
 14
0.0
 24
0.0
 34
0.0
 15
296.9999999999999
 25
210.0
 35
0.0
146
0.0
 13
0.0
 23
0.0
 33
0.0
 16
1.0
 26
0.0
 36
0.0
 17
0.0
 27
1.0
 37
0.0
 76
     0
330
1F
331
29
  0
MATERIAL
  5
3D
102
{ACAD_REACTORS
330
3B
102
}
102
{ACAD_XDICTIONARY
360
5B9
102
}
330
3B
100
AcDbMaterial
  1
ByBlock
  0
MATERIAL
  5
3C
102
{ACAD_REACTORS
330
3B
102
}
102
{ACAD_XDICTIONARY
360
5B7
102
}
330
3B
100
AcDbMaterial
  1
ByLayer
  0
MATERIAL
  5
3E
102
{ACAD_REACTORS
330
3B
102
}
102
{ACAD_XDICTIONARY
360
5BB
102
}
330
3B
100
AcDbMaterial
  1
Global
  0
MLINESTYLE
  5
18
102
{ACAD_REACTORS
330
17
102
}
330
17
100
AcDbMlineStyle
  2
Standard
 70
     0
  3

 62
   256
 51
90.0
 52
90.0
 71
     2
 49
0.5
 62
   256
  6
BYLAYER
 49
-0.5
 62
   256
  6
BYLAYER
  0
ACDBPLACEHOLDER
  5
F
102
{ACAD_REACTORS
330
E
102
}
330
E
  0
VISUALSTYLE
  5
2F
102
{ACAD_REACTORS
330
2A
102
}
102
{ACAD_XDICTIONARY
360
59F
102
}
330
2A
100
AcDbVisualStyle
  2
2dWireframe
 70
     4
 71
     0
 72
     2
 73
     0
 90
        0
 40
-0.6
 41
-30.0
 62
     5
 63
     7
 74
     1
 91
        4
 64
     7
 65
   257
 75
     1
175
     1
 42
1.0
 92
        0
 66
   257
 43
1.0
 76
     1
 77
     6
 78
     2
 67
     7
 79
     5
170
     0
171
     0
290
     0
174
     0
 93
        1
 44
0.0
173
     0
291
     0
 45
0.0
1001
ACAD
1000
AcDbSavedByObjectVersion
1070
     0
  0
VISUALSTYLE
  5
31
102
{ACAD_REACTORS
330
2A
102
}
102
{ACAD_XDICTIONARY
360
5A3
102
}
330
2A
100
AcDbVisualStyle
  2
3D Hidden
 70
     6
 71
     1
 72
     2
 73
     2
 90
        0
 40
-0.6
 41
-30.0
 62
     5
 63
     7
 74
     2
 91
        2
 64
     7
 65
   257
 75
     2
175
     1
 42
40.0
 92
        0
 66
   257
 43
1.0
 76
     1
 77
     6
 78
     2
 67
     7
 79
     3
170
     0
171
     0
290
     0
174
     0
 93
        1
 44
0.0
173
     0
291
     0
 45
0.0
1001
ACAD
1000
AcDbSavedByObjectVersion
1070
     0
  0
VISUALSTYLE
  5
30
102
{ACAD_REACTORS
330
2A
102
}
102
{ACAD_XDICTIONARY
360
5A1
102
}
330
2A
100
AcDbVisualStyle
  2
3dWireframe
 70
     5
 71
     0
 72
     2
 73
     0
 90
        0
 40
-0.6
 41
-30.0
 62
     5
 63
     7
 74
     1
 91
        4
 64
     7
 65
   257
 75
     1
175
     1
 42
1.0
 92
        0
 66
   257
 43
1.0
 76
     1
 77
     6
 78
     2
 67
     7
 79
     5
170
     0
171
     0
290
     0
174
     0
 93
        1
 44
0.0
173
     0
291
     0
 45
0.0
1001
ACAD
1000
AcDbSavedByObjectVersion
1070
     0
  0
VISUALSTYLE
  5
32
102
{ACAD_REACTORS
330
2A
102
}
102
{ACAD_XDICTIONARY
360
5A5
102
}
330
2A
100
AcDbVisualStyle
  2
Basic
 70
     7
 71
     1
 72
     0
 73
     1
 90
        0
 40
-0.6
 41
-30.0
 62
     5
 63
     7
 74
     0
 91
        4
 64
     7
 65
   257
 75
     1
175
     1
 42
1.0
 92
        8
 66
     7
 43
1.0
 76
     1
 77
     6
 78
     2
 67
     7
 79
     5
170
     0
171
     0
290
     0
174
     0
 93
        1
 44
0.0
173
     0
291
     1
 45
0.0
1001
ACAD
1000
AcDbSavedByObjectVersion
1070
     0
  0
VISUALSTYLE
  5
36
102
{ACAD_REACTORS
330
2A
102
}
102
{ACAD_XDICTIONARY
360
5AD
102
}
330
2A
100
AcDbVisualStyle
  2
Brighten
 70
    12
 71
     2
 72
     2
 73
     0
 90
        0
 40
-0.6
 41
-30.0
 62
     5
 63
     7
 74
     1
 91
        4
 64
     7
 65
   257
 75
     1
175
     1
 42
1.0
 92
        8
 66
     7
 43
1.0
 76
     1
 77
     6
 78
     2
 67
     7
 79
     5
170
     0
171
     0
290
     0
174
     0
 93
        1
 44
50.0
173
     0
291
     1
 45
0.0
1001
ACAD
1000
AcDbSavedByObjectVersion
1070
     0
  0
VISUALSTYLE
  5
3A
102
{ACAD_REACTORS
330
2A
102
}
102
{ACAD_XDICTIONARY
360
5B5
102
}
330
2A
100
AcDbVisualStyle
  2
ColorChange
 70
    16
 71
     2
 72
     2
 73
     3
 90
        0
 40
-0.6
 41
-30.0
 62
     5
 63
     8
 74
     1
 91
        4
 64
     7
 65
   257
 75
     1
175
     1
 42
1.0
 92
        8
 66
     8
 43
1.0
 76
     1
 77
     6
 78
     2
 67
     7
 79
     5
170
     0
171
     0
290
     0
174
     0
 93
        1
 44
0.0
173
     0
291
     1
 45
0.0
1001
ACAD
1000
AcDbSavedByObjectVersion
1070
     0
  0
VISUALSTYLE
  5
34
102
{ACAD_REACTORS
330
2A
102
}
102
{ACAD_XDICTIONARY
360
5A9
102
}
330
2A
100
AcDbVisualStyle
  2
Conceptual
 70
     9
 71
     3
 72
     2
 73
     0
 90
        0
 40
-0.6
 41
-30.0
 62
     5
 63
     7
 74
     2
 91
        2
 64
     7
 65
   257
 75
     1
175
     1
 42
40.0
 92
        8
 66
     7
 43
1.0
 76
     1
 77
     6
 78
     2
 67
     7
 79
     3
170
     0
171
     0
290
     0
174
     0
 93
        1
 44
0.0
173
     0
291
     0
 45
0.0
1001
ACAD
1000
AcDbSavedByObjectVersion
1070
     0
  0
VISUALSTYLE
  5
35
102
{ACAD_REACTORS
330
2A
102
}
102
{ACAD_XDICTIONARY
360
5AB
102
}
330
2A
100
AcDbVisualStyle
  2
Dim
 70
    11
 71
     2
 72
     2
 73
     0
 90
        0
 40
-0.6
 41
-30.0
 62
     5
 63
     7
 74
     1
 91
        4
 64
     7
 65
   257
 75
     1
175
     1
 42
1.0
 92
        8
 66
     7
 43
1.0
 76
     1
 77
     6
 78
     2
 67
     7
 79
     5
170
     0
171
     0
290
     0
174
     0
 93
        1
 44
-50.0
173
     0
291
     1
 45
0.0
1001
ACAD
1000
AcDbSavedByObjectVersion
1070
     0
  0
VISUALSTYLE
  5
39
102
{ACAD_REACTORS
330
2A
102
}
102
{ACAD_XDICTIONARY
360
5B3
102
}
330
2A
100
AcDbVisualStyle
  2
Facepattern
 70
    15
 71
     2
 72
     2
 73
     0
 90
        0
 40
-0.6
 41
-30.0
 62
     5
 63
     7
 74
     1
 91
        4
 64
     7
 65
   257
 75
     1
175
     1
 42
1.0
 92
        8
 66
     7
 43
1.0
 76
     1
 77
     6
 78
     2
 67
     7
 79
     5
170
     0
171
     0
290
     0
174
     0
 93
        1
 44
0.0
173
     0
291
     1
 45
0.0
1001
ACAD
1000
AcDbSavedByObjectVersion
1070
     0
  0
VISUALSTYLE
  5
2B
102
{ACAD_REACTORS
330
2A
102
}
102
{ACAD_XDICTIONARY
360
597
102
}
330
2A
100
AcDbVisualStyle
  2
Flat
 70
     0
 71
     2
 72
     1
 73
     1
 90
        2
 40
-0.6
 41
30.0
 62
     5
 63
     7
 74
     0
 91
        4
 64
     7
 65
   257
 75
     1
175
     1
 42
1.0
 92
        8
 66
     7
 43
1.0
 76
     1
 77
     6
 78
     2
 67
     7
 79
     5
170
     0
171
     0
290
     0
174
     0
 93
       13
 44
0.0
173
     0
291
     1
 45
0.0
1001
ACAD
1000
AcDbSavedByObjectVersion
1070
     0
  0
VISUALSTYLE
  5
2C
102
{ACAD_REACTORS
330
2A
102
}
102
{ACAD_XDICTIONARY
360
599
102
}
330
2A
100
AcDbVisualStyle
  2
FlatWithEdges
 70
     1
 71
     2
 72
     1
 73
     1
 90
        2
 40
-0.6
 41
30.0
 62
     5
 63
     7
 74
     1
 91
        4
 64
     7
 65
   257
 75
     1
175
     1
 42
1.0
 92
        0
 66
   257
 43
1.0
 76
     1
 77
     6
 78
     2
 67
     7
 79
     5
170
     0
171
     0
290
     0
174
     0
 93
       13
 44
0.0
173
     0
291
     1
 45
0.0
1001
ACAD
1000
AcDbSavedByObjectVersion
1070
     0
  0
VISUALSTYLE
  5
2D
102
{ACAD_REACTORS
330
2A
102
}
102
{ACAD_XDICTIONARY
360
59B
102
}
330
2A
100
AcDbVisualStyle
  2
Gouraud
 70
     2
 71
     2
 72
     2
 73
     1
 90
        2
 40
-0.6
 41
30.0
 62
     5
 63
     7
 74
     0
 91
        4
 64
     7
 65
   257
 75
     1
175
     1
 42
1.0
 92
        0
 66
     7
 43
1.0
 76
     1
 77
     6
 78
     2
 67
     7
 79
     5
170
     0
171
     0
290
     0
174
     0
 93
       13
 44
0.0
173
     0
291
     1
 45
0.0
1001
ACAD
1000
AcDbSavedByObjectVersion
1070
     0
  0
VISUALSTYLE
  5
2E
102
{ACAD_REACTORS
330
2A
102
}
102
{ACAD_XDICTIONARY
360
59D
102
}
330
2A
100
AcDbVisualStyle
  2
GouraudWithEdges
 70
     3
 71
     2
 72
     2
 73
     1
 90
        2
 40
-0.6
 41
30.0
 62
     5
 63
     7
 74
     1
 91
        4
 64
     7
 65
   257
 75
     1
175
     1
 42
1.0
 92
        0
 66
   257
 43
1.0
 76
     1
 77
     6
 78
     2
 67
     7
 79
     5
170
     0
171
     0
290
     0
174
     0
 93
       13
 44
0.0
173
     0
291
     1
 45
0.0
1001
ACAD
1000
AcDbSavedByObjectVersion
1070
     0
  0
VISUALSTYLE
  5
38
102
{ACAD_REACTORS
330
2A
102
}
102
{ACAD_XDICTIONARY
360
5B1
102
}
330
2A
100
AcDbVisualStyle
  2
Linepattern
 70
    14
 71
     2
 72
     2
 73
     0
 90
        0
 40
-0.6
 41
-30.0
 62
     5
 63
     7
 74
     1
 91
        4
 64
     7
 65
   257
 75
     7
175
     7
 42
1.0
 92
        8
 66
     7
 43
1.0
 76
     1
 77
     6
 78
     2
 67
     7
 79
     5
170
     0
171
     0
290
     0
174
     0
 93
        1
 44
0.0
173
     0
291
     1
 45
0.0
1001
ACAD
1000
AcDbSavedByObjectVersion
1070
     0
  0
VISUALSTYLE
  5
33
102
{ACAD_REACTORS
330
2A
102
}
102
{ACAD_XDICTIONARY
360
5A7
102
}
330
2A
100
AcDbVisualStyle
  2
Realistic
 70
     8
 71
     2
 72
     2
 73
     0
 90
        0
 40
-0.6
 41
-30.0
 62
     5
 63
     7
 74
     1
 91
        0
 64
     7
 65
   257
 75
     1
175
     1
 42
1.0
 92
        8
 66
     8
 43
1.0
 76
     1
 77
     6
 78
     2
 67
     7
 79
     5
170
     0
171
     0
290
     0
174
     0
 93
       13
 44
0.0
173
     0
291
     0
 45
0.0
1001
ACAD
1000
AcDbSavedByObjectVersion
1070
     0
  0
VISUALSTYLE
  5
37
102
{ACAD_REACTORS
330
2A
102
}
102
{ACAD_XDICTIONARY
360
5AF
102
}
330
2A
100
AcDbVisualStyle
  2
Thicken
 70
    13
 71
     2
 72
     2
 73
     0
 90
        0
 40
-0.6
 41
-30.0
 62
     5
 63
     7
 74
     1
 91
        4
 64
     7
 65
   257
 75
     1
175
     1
 42
1.0
 92
       12
 66
     7
 43
1.0
 76
     1
 77
     6
 78
     2
 67
     7
 79
     5
170
     0
171
     0
290
     0
174
     0
 93
        1
 44
0.0
173
     0
291
     1
 45
0.0
1001
ACAD
1000
AcDbSavedByObjectVersion
1070
     0
  0
DICTIONARYVAR
  5
595
102
{ACAD_REACTORS
330
592
102
}
330
592
100
DictionaryVariables
280
     0
  1
2
  0
DICTIONARYVAR
  5
596
102
{ACAD_REACTORS
330
592
102
}
330
592
100
DictionaryVariables
280
     0
  1
1
  0
DICTIONARY
  5
5B9
330
3D
100
AcDbDictionary
280
     1
281
     1
  3
ACAD_XREC_ROUNDTRIP
360
5BA
  0
DICTIONARY
  5
5B7
330
3C
100
AcDbDictionary
280
     1
281
     1
  3
ACAD_XREC_ROUNDTRIP
360
5B8
  0
DICTIONARY
  5
5BB
330
3E
100
AcDbDictionary
280
     1
281
     1
  3
ACAD_XREC_ROUNDTRIP
360
5BC
  0
DICTIONARY
  5
59F
330
2F
100
AcDbDictionary
280
     1
281
     1
  3
ACAD_XREC_ROUNDTRIP
360
5A0
  0
DICTIONARY
  5
5A3
330
31
100
AcDbDictionary
280
     1
281
     1
  3
ACAD_XREC_ROUNDTRIP
360
5A4
  0
DICTIONARY
  5
5A1
330
30
100
AcDbDictionary
280
     1
281
     1
  3
ACAD_XREC_ROUNDTRIP
360
5A2
  0
DICTIONARY
  5
5A5
330
32
100
AcDbDictionary
280
     1
281
     1
  3
ACAD_XREC_ROUNDTRIP
360
5A6
  0
DICTIONARY
  5
5AD
330
36
100
AcDbDictionary
280
     1
281
     1
  3
ACAD_XREC_ROUNDTRIP
360
5AE
  0
DICTIONARY
  5
5B5
330
3A
100
AcDbDictionary
280
     1
281
     1
  3
ACAD_XREC_ROUNDTRIP
360
5B6
  0
DICTIONARY
  5
5A9
330
34
100
AcDbDictionary
280
     1
281
     1
  3
ACAD_XREC_ROUNDTRIP
360
5AA
  0
DICTIONARY
  5
5AB
330
35
100
AcDbDictionary
280
     1
281
     1
  3
ACAD_XREC_ROUNDTRIP
360
5AC
  0
DICTIONARY
  5
5B3
330
39
100
AcDbDictionary
280
     1
281
     1
  3
ACAD_XREC_ROUNDTRIP
360
5B4
  0
DICTIONARY
  5
597
330
2B
100
AcDbDictionary
280
     1
281
     1
  3
ACAD_XREC_ROUNDTRIP
360
598
  0
DICTIONARY
  5
599
330
2C
100
AcDbDictionary
280
     1
281
     1
  3
ACAD_XREC_ROUNDTRIP
360
59A
  0
DICTIONARY
  5
59B
330
2D
100
AcDbDictionary
280
     1
281
     1
  3
ACAD_XREC_ROUNDTRIP
360
59C
  0
DICTIONARY
  5
59D
330
2E
100
AcDbDictionary
280
     1
281
     1
  3
ACAD_XREC_ROUNDTRIP
360
59E
  0
DICTIONARY
  5
5B1
330
38
100
AcDbDictionary
280
     1
281
     1
  3
ACAD_XREC_ROUNDTRIP
360
5B2
  0
DICTIONARY
  5
5A7
330
33
100
AcDbDictionary
280
     1
281
     1
  3
ACAD_XREC_ROUNDTRIP
360
5A8
  0
DICTIONARY
  5
5AF
330
37
100
AcDbDictionary
280
     1
281
     1
  3
ACAD_XREC_ROUNDTRIP
360
5B0
  0
XRECORD
  5
5BA
102
{ACAD_REACTORS
330
5B9
102
}
330
5B9
100
AcDbXrecord
280
     1
102
MATERIAL
148
0.0
149
0.0
149
0.0
 93
        0
 94
      127
282
     0
 72
     1
 77
     1
171
     1
175
     1
179
     1
273
     0
  0
XRECORD
  5
5B8
102
{ACAD_REACTORS
330
5B7
102
}
330
5B7
100
AcDbXrecord
280
     1
102
MATERIAL
148
0.0
149
0.0
149
0.0
 93
        0
 94
      127
282
     0
 72
     1
 77
     1
171
     1
175
     1
179
     1
273
     0
  0
XRECORD
  5
5BC
102
{ACAD_REACTORS
330
5BB
102
}
330
5BB
100
AcDbXrecord
280
     1
102
MATERIAL
148
0.0
149
0.0
149
0.0
 93
        0
 94
      127
282
     0
 72
     1
 77
     1
171
     1
175
     1
179
     1
273
     0
  0
XRECORD
  5
5A0
102
{ACAD_REACTORS
330
59F
102
}
330
59F
100
AcDbXrecord
280
     1
102
RTVSPropertyOp0
 70
     1
102
RTVSPropertyOp1
 70
     1
102
RTVSPropertyOp2
 70
     1
102
RTVSPropertyOp3
 70
     1
102
RTVSPropertyOp4
 70
     1
102
RTVSPropertyOp5
 70
     1
102
RTVSPropertyOp6
 70
     1
102
RTVSPropertyOp7
 70
     1
102
RTVSPropertyOp8
 70
     1
102
RTVSPropertyOp9
 70
     1
102
RTVSPropertyOp10
 70
     1
102
RTVSPropertyOp11
 70
     1
102
RTVSPropertyOp12
 70
     1
102
RTVSPropertyOp13
 70
     1
102
RTVSPropertyOp14
 70
     1
102
RTVSPropertyOp15
 70
     1
102
RTVSPropertyOp16
 70
     1
102
RTVSPropertyOp17
 70
     1
102
RTVSPropertyOp18
 70
     1
102
RTVSPropertyOp19
 70
     1
102
RTVSPropertyOp20
 70
     1
102
RTVSPropertyOp21
 70
     1
102
RTVSPropertyOp22
 70
     1
102
RTVSPropertyOp23
 70
     1
102
RTVSPropertyOp24
 70
     1
102
RTVSPropertyOp25
 70
     1
102
RTVSPropertyOp26
 70
     1
102
RTVSPropertyOp27
 70
     1
102
RTVSPropertyOp28
 70
     1
102
RTVSPropertyOp29
 70
     1
102
RTVSPropertyOp30
 70
     1
102
RTVSPropertyOp31
 70
     1
102
RTVSPropertyOp32
 70
     1
  0
XRECORD
  5
5A4
102
{ACAD_REACTORS
330
5A3
102
}
330
5A3
100
AcDbXrecord
280
     1
102
RTVSPropertyOp0
 70
     1
102
RTVSPropertyOp1
 70
     1
102
RTVSPropertyOp2
 70
     1
102
RTVSPropertyOp3
 70
     1
102
RTVSPropertyOp4
 70
     1
102
RTVSPropertyOp5
 70
     1
102
RTVSPropertyOp6
 70
     1
102
RTVSPropertyOp7
 70
     1
102
RTVSPropertyOp8
 70
     1
102
RTVSPropertyOp9
 70
     1
102
RTVSPropertyOp10
 70
     1
102
RTVSPropertyOp11
 70
     1
102
RTVSPropertyOp12
 70
     1
102
RTVSPropertyOp13
 70
     1
102
RTVSPropertyOp14
 70
     1
102
RTVSPropertyOp15
 70
     1
102
RTVSPropertyOp16
 70
     1
102
RTVSPropertyOp17
 70
     1
102
RTVSPropertyOp18
 70
     1
102
RTVSPropertyOp19
 70
     1
102
RTVSPropertyOp20
 70
     1
102
RTVSPropertyOp21
 70
     1
102
RTVSPropertyOp22
 70
     1
102
RTVSPropertyOp23
 70
     1
102
RTVSPropertyOp24
 70
     1
102
RTVSPropertyOp25
 70
     1
102
RTVSPropertyOp26
 70
     1
102
RTVSPropertyOp27
 70
     1
102
RTVSPropertyOp28
 70
     1
102
RTVSPropertyOp29
 70
     1
102
RTVSPropertyOp30
 70
     1
102
RTVSPropertyOp31
 70
     1
102
RTVSPropertyOp32
 70
     1
  0
XRECORD
  5
5A2
102
{ACAD_REACTORS
330
5A1
102
}
330
5A1
100
AcDbXrecord
280
     1
102
RTVSPropertyOp0
 70
     1
102
RTVSPropertyOp1
 70
     1
102
RTVSPropertyOp2
 70
     1
102
RTVSPropertyOp3
 70
     1
102
RTVSPropertyOp4
 70
     1
102
RTVSPropertyOp5
 70
     1
102
RTVSPropertyOp6
 70
     1
102
RTVSPropertyOp7
 70
     1
102
RTVSPropertyOp8
 70
     1
102
RTVSPropertyOp9
 70
     1
102
RTVSPropertyOp10
 70
     1
102
RTVSPropertyOp11
 70
     1
102
RTVSPropertyOp12
 70
     1
102
RTVSPropertyOp13
 70
     1
102
RTVSPropertyOp14
 70
     1
102
RTVSPropertyOp15
 70
     1
102
RTVSPropertyOp16
 70
     1
102
RTVSPropertyOp17
 70
     1
102
RTVSPropertyOp18
 70
     1
102
RTVSPropertyOp19
 70
     1
102
RTVSPropertyOp20
 70
     1
102
RTVSPropertyOp21
 70
     1
102
RTVSPropertyOp22
 70
     1
102
RTVSPropertyOp23
 70
     1
102
RTVSPropertyOp24
 70
     1
102
RTVSPropertyOp25
 70
     1
102
RTVSPropertyOp26
 70
     1
102
RTVSPropertyOp27
 70
     1
102
RTVSPropertyOp28
 70
     1
102
RTVSPropertyOp29
 70
     1
102
RTVSPropertyOp30
 70
     1
102
RTVSPropertyOp31
 70
     1
102
RTVSPropertyOp32
 70
     1
  0
XRECORD
  5
5A6
102
{ACAD_REACTORS
330
5A5
102
}
330
5A5
100
AcDbXrecord
280
     1
102
RTVSPropertyOp0
 70
     1
102
RTVSPropertyOp1
 70
     1
102
RTVSPropertyOp2
 70
     1
102
RTVSPropertyOp3
 70
     1
102
RTVSPropertyOp4
 70
     1
102
RTVSPropertyOp5
 70
     1
102
RTVSPropertyOp6
 70
     1
102
RTVSPropertyOp7
 70
     1
102
RTVSPropertyOp8
 70
     1
102
RTVSPropertyOp9
 70
     1
102
RTVSPropertyOp10
 70
     1
102
RTVSPropertyOp11
 70
     1
102
RTVSPropertyOp12
 70
     1
102
RTVSPropertyOp13
 70
     1
102
RTVSPropertyOp14
 70
     1
102
RTVSPropertyOp15
 70
     1
102
RTVSPropertyOp16
 70
     1
102
RTVSPropertyOp17
 70
     1
102
RTVSPropertyOp18
 70
     1
102
RTVSPropertyOp19
 70
     1
102
RTVSPropertyOp20
 70
     1
102
RTVSPropertyOp21
 70
     1
102
RTVSPropertyOp22
 70
     1
102
RTVSPropertyOp23
 70
     1
102
RTVSPropertyOp24
 70
     1
102
RTVSPropertyOp25
 70
     1
102
RTVSPropertyOp26
 70
     1
102
RTVSPropertyOp27
 70
     1
102
RTVSPropertyOp28
 70
     1
102
RTVSPropertyOp29
 70
     1
102
RTVSPropertyOp30
 70
     1
102
RTVSPropertyOp31
 70
     1
102
RTVSPropertyOp32
 70
     1
  0
XRECORD
  5
5AE
102
{ACAD_REACTORS
330
5AD
102
}
330
5AD
100
AcDbXrecord
280
     1
102
RTVSPropertyOp0
 70
     1
102
RTVSPropertyOp1
 70
     1
102
RTVSPropertyOp2
 70
     1
102
RTVSPropertyOp3
 70
     1
102
RTVSPropertyOp4
 70
     1
102
RTVSPropertyOp5
 70
     1
102
RTVSPropertyOp6
 70
     1
102
RTVSPropertyOp7
 70
     1
102
RTVSPropertyOp8
 70
     1
102
RTVSPropertyOp9
 70
     1
102
RTVSPropertyOp10
 70
     1
102
RTVSPropertyOp11
 70
     1
102
RTVSPropertyOp12
 70
     1
102
RTVSPropertyOp13
 70
     1
102
RTVSPropertyOp14
 70
     1
102
RTVSPropertyOp15
 70
     1
102
RTVSPropertyOp16
 70
     1
102
RTVSPropertyOp17
 70
     1
102
RTVSPropertyOp18
 70
     1
102
RTVSPropertyOp19
 70
     1
102
RTVSPropertyOp20
 70
     1
102
RTVSPropertyOp21
 70
     1
102
RTVSPropertyOp22
 70
     1
102
RTVSPropertyOp23
 70
     1
102
RTVSPropertyOp24
 70
     1
102
RTVSPropertyOp25
 70
     1
102
RTVSPropertyOp26
 70
     1
102
RTVSPropertyOp27
 70
     1
102
RTVSPropertyOp28
 70
     1
102
RTVSPropertyOp29
 70
     1
102
RTVSPropertyOp30
 70
     1
102
RTVSPropertyOp31
 70
     1
102
RTVSPropertyOp32
 70
     1
  0
XRECORD
  5
5B6
102
{ACAD_REACTORS
330
5B5
102
}
330
5B5
100
AcDbXrecord
280
     1
102
RTVSPropertyOp0
 70
     1
102
RTVSPropertyOp1
 70
     1
102
RTVSPropertyOp2
 70
     1
102
RTVSPropertyOp3
 70
     1
102
RTVSPropertyOp4
 70
     1
102
RTVSPropertyOp5
 70
     1
102
RTVSPropertyOp6
 70
     1
102
RTVSPropertyOp7
 70
     1
102
RTVSPropertyOp8
 70
     1
102
RTVSPropertyOp9
 70
     1
102
RTVSPropertyOp10
 70
     1
102
RTVSPropertyOp11
 70
     1
102
RTVSPropertyOp12
 70
     1
102
RTVSPropertyOp13
 70
     1
102
RTVSPropertyOp14
 70
     1
102
RTVSPropertyOp15
 70
     1
102
RTVSPropertyOp16
 70
     1
102
RTVSPropertyOp17
 70
     1
102
RTVSPropertyOp18
 70
     1
102
RTVSPropertyOp19
 70
     1
102
RTVSPropertyOp20
 70
     1
102
RTVSPropertyOp21
 70
     1
102
RTVSPropertyOp22
 70
     1
102
RTVSPropertyOp23
 70
     1
102
RTVSPropertyOp24
 70
     1
102
RTVSPropertyOp25
 70
     1
102
RTVSPropertyOp26
 70
     1
102
RTVSPropertyOp27
 70
     1
102
RTVSPropertyOp28
 70
     1
102
RTVSPropertyOp29
 70
     1
102
RTVSPropertyOp30
 70
     1
102
RTVSPropertyOp31
 70
     1
102
RTVSPropertyOp32
 70
     1
  0
XRECORD
  5
5AA
102
{ACAD_REACTORS
330
5A9
102
}
330
5A9
100
AcDbXrecord
280
     1
102
RTVSPropertyOp0
 70
     1
102
RTVSPropertyOp1
 70
     1
102
RTVSPropertyOp2
 70
     1
102
RTVSPropertyOp3
 70
     1
102
RTVSPropertyOp4
 70
     1
102
RTVSPropertyOp5
 70
     1
102
RTVSPropertyOp6
 70
     1
102
RTVSPropertyOp7
 70
     1
102
RTVSPropertyOp8
 70
     1
102
RTVSPropertyOp9
 70
     1
102
RTVSPropertyOp10
 70
     1
102
RTVSPropertyOp11
 70
     1
102
RTVSPropertyOp12
 70
     1
102
RTVSPropertyOp13
 70
     1
102
RTVSPropertyOp14
 70
     1
102
RTVSPropertyOp15
 70
     1
102
RTVSPropertyOp16
 70
     1
102
RTVSPropertyOp17
 70
     1
102
RTVSPropertyOp18
 70
     1
102
RTVSPropertyOp19
 70
     1
102
RTVSPropertyOp20
 70
     1
102
RTVSPropertyOp21
 70
     1
102
RTVSPropertyOp22
 70
     1
102
RTVSPropertyOp23
 70
     1
102
RTVSPropertyOp24
 70
     1
102
RTVSPropertyOp25
 70
     1
102
RTVSPropertyOp26
 70
     1
102
RTVSPropertyOp27
 70
     1
102
RTVSPropertyOp28
 70
     1
102
RTVSPropertyOp29
 70
     1
102
RTVSPropertyOp30
 70
     1
102
RTVSPropertyOp31
 70
     1
102
RTVSPropertyOp32
 70
     1
  0
XRECORD
  5
5AC
102
{ACAD_REACTORS
330
5AB
102
}
330
5AB
100
AcDbXrecord
280
     1
102
RTVSPropertyOp0
 70
     1
102
RTVSPropertyOp1
 70
     1
102
RTVSPropertyOp2
 70
     1
102
RTVSPropertyOp3
 70
     1
102
RTVSPropertyOp4
 70
     1
102
RTVSPropertyOp5
 70
     1
102
RTVSPropertyOp6
 70
     1
102
RTVSPropertyOp7
 70
     1
102
RTVSPropertyOp8
 70
     1
102
RTVSPropertyOp9
 70
     1
102
RTVSPropertyOp10
 70
     1
102
RTVSPropertyOp11
 70
     1
102
RTVSPropertyOp12
 70
     1
102
RTVSPropertyOp13
 70
     1
102
RTVSPropertyOp14
 70
     1
102
RTVSPropertyOp15
 70
     1
102
RTVSPropertyOp16
 70
     1
102
RTVSPropertyOp17
 70
     1
102
RTVSPropertyOp18
 70
     1
102
RTVSPropertyOp19
 70
     1
102
RTVSPropertyOp20
 70
     1
102
RTVSPropertyOp21
 70
     1
102
RTVSPropertyOp22
 70
     1
102
RTVSPropertyOp23
 70
     1
102
RTVSPropertyOp24
 70
     1
102
RTVSPropertyOp25
 70
     1
102
RTVSPropertyOp26
 70
     1
102
RTVSPropertyOp27
 70
     1
102
RTVSPropertyOp28
 70
     1
102
RTVSPropertyOp29
 70
     1
102
RTVSPropertyOp30
 70
     1
102
RTVSPropertyOp31
 70
     1
102
RTVSPropertyOp32
 70
     1
  0
XRECORD
  5
5B4
102
{ACAD_REACTORS
330
5B3
102
}
330
5B3
100
AcDbXrecord
280
     1
102
RTVSPropertyOp0
 70
     1
102
RTVSPropertyOp1
 70
     1
102
RTVSPropertyOp2
 70
     1
102
RTVSPropertyOp3
 70
     1
102
RTVSPropertyOp4
 70
     1
102
RTVSPropertyOp5
 70
     1
102
RTVSPropertyOp6
 70
     1
102
RTVSPropertyOp7
 70
     1
102
RTVSPropertyOp8
 70
     1
102
RTVSPropertyOp9
 70
     1
102
RTVSPropertyOp10
 70
     1
102
RTVSPropertyOp11
 70
     1
102
RTVSPropertyOp12
 70
     1
102
RTVSPropertyOp13
 70
     1
102
RTVSPropertyOp14
 70
     1
102
RTVSPropertyOp15
 70
     1
102
RTVSPropertyOp16
 70
     1
102
RTVSPropertyOp17
 70
     1
102
RTVSPropertyOp18
 70
     1
102
RTVSPropertyOp19
 70
     1
102
RTVSPropertyOp20
 70
     1
102
RTVSPropertyOp21
 70
     1
102
RTVSPropertyOp22
 70
     1
102
RTVSPropertyOp23
 70
     1
102
RTVSPropertyOp24
 70
     1
102
RTVSPropertyOp25
 70
     1
102
RTVSPropertyOp26
 70
     1
102
RTVSPropertyOp27
 70
     1
102
RTVSPropertyOp28
 70
     1
102
RTVSPropertyOp29
 70
     1
102
RTVSPropertyOp30
 70
     1
102
RTVSPropertyOp31
 70
     1
102
RTVSPropertyOp32
 70
     1
  0
XRECORD
  5
598
102
{ACAD_REACTORS
330
597
102
}
330
597
100
AcDbXrecord
280
     1
102
RTVSPropertyOp0
 70
     1
102
RTVSPropertyOp1
 70
     1
102
RTVSPropertyOp2
 70
     1
102
RTVSPropertyOp3
 70
     1
102
RTVSPropertyOp4
 70
     1
102
RTVSPropertyOp5
 70
     1
102
RTVSPropertyOp6
 70
     1
102
RTVSPropertyOp7
 70
     1
102
RTVSPropertyOp8
 70
     1
102
RTVSPropertyOp9
 70
     1
102
RTVSPropertyOp10
 70
     1
102
RTVSPropertyOp11
 70
     1
102
RTVSPropertyOp12
 70
     1
102
RTVSPropertyOp13
 70
     1
102
RTVSPropertyOp14
 70
     1
102
RTVSPropertyOp15
 70
     1
102
RTVSPropertyOp16
 70
     1
102
RTVSPropertyOp17
 70
     1
102
RTVSPropertyOp18
 70
     1
102
RTVSPropertyOp19
 70
     1
102
RTVSPropertyOp20
 70
     1
102
RTVSPropertyOp21
 70
     1
102
RTVSPropertyOp22
 70
     1
102
RTVSPropertyOp23
 70
     1
102
RTVSPropertyOp24
 70
     1
102
RTVSPropertyOp25
 70
     1
102
RTVSPropertyOp26
 70
     1
102
RTVSPropertyOp27
 70
     1
102
RTVSPropertyOp28
 70
     1
102
RTVSPropertyOp29
 70
     1
102
RTVSPropertyOp30
 70
     1
102
RTVSPropertyOp31
 70
     1
102
RTVSPropertyOp32
 70
     1
  0
XRECORD
  5
59A
102
{ACAD_REACTORS
330
599
102
}
330
599
100
AcDbXrecord
280
     1
102
RTVSPropertyOp0
 70
     1
102
RTVSPropertyOp1
 70
     1
102
RTVSPropertyOp2
 70
     1
102
RTVSPropertyOp3
 70
     1
102
RTVSPropertyOp4
 70
     1
102
RTVSPropertyOp5
 70
     1
102
RTVSPropertyOp6
 70
     1
102
RTVSPropertyOp7
 70
     1
102
RTVSPropertyOp8
 70
     1
102
RTVSPropertyOp9
 70
     1
102
RTVSPropertyOp10
 70
     1
102
RTVSPropertyOp11
 70
     1
102
RTVSPropertyOp12
 70
     1
102
RTVSPropertyOp13
 70
     1
102
RTVSPropertyOp14
 70
     1
102
RTVSPropertyOp15
 70
     1
102
RTVSPropertyOp16
 70
     1
102
RTVSPropertyOp17
 70
     1
102
RTVSPropertyOp18
 70
     1
102
RTVSPropertyOp19
 70
     1
102
RTVSPropertyOp20
 70
     1
102
RTVSPropertyOp21
 70
     1
102
RTVSPropertyOp22
 70
     1
102
RTVSPropertyOp23
 70
     1
102
RTVSPropertyOp24
 70
     1
102
RTVSPropertyOp25
 70
     1
102
RTVSPropertyOp26
 70
     1
102
RTVSPropertyOp27
 70
     1
102
RTVSPropertyOp28
 70
     1
102
RTVSPropertyOp29
 70
     1
102
RTVSPropertyOp30
 70
     1
102
RTVSPropertyOp31
 70
     1
102
RTVSPropertyOp32
 70
     1
  0
XRECORD
  5
59C
102
{ACAD_REACTORS
330
59B
102
}
330
59B
100
AcDbXrecord
280
     1
102
RTVSPropertyOp0
 70
     1
102
RTVSPropertyOp1
 70
     1
102
RTVSPropertyOp2
 70
     1
102
RTVSPropertyOp3
 70
     1
102
RTVSPropertyOp4
 70
     1
102
RTVSPropertyOp5
 70
     1
102
RTVSPropertyOp6
 70
     1
102
RTVSPropertyOp7
 70
     1
102
RTVSPropertyOp8
 70
     1
102
RTVSPropertyOp9
 70
     1
102
RTVSPropertyOp10
 70
     1
102
RTVSPropertyOp11
 70
     1
102
RTVSPropertyOp12
 70
     1
102
RTVSPropertyOp13
 70
     1
102
RTVSPropertyOp14
 70
     1
102
RTVSPropertyOp15
 70
     1
102
RTVSPropertyOp16
 70
     1
102
RTVSPropertyOp17
 70
     1
102
RTVSPropertyOp18
 70
     1
102
RTVSPropertyOp19
 70
     1
102
RTVSPropertyOp20
 70
     1
102
RTVSPropertyOp21
 70
     1
102
RTVSPropertyOp22
 70
     1
102
RTVSPropertyOp23
 70
     1
102
RTVSPropertyOp24
 70
     1
102
RTVSPropertyOp25
 70
     1
102
RTVSPropertyOp26
 70
     1
102
RTVSPropertyOp27
 70
     1
102
RTVSPropertyOp28
 70
     1
102
RTVSPropertyOp29
 70
     1
102
RTVSPropertyOp30
 70
     1
102
RTVSPropertyOp31
 70
     1
102
RTVSPropertyOp32
 70
     1
  0
XRECORD
  5
59E
102
{ACAD_REACTORS
330
59D
102
}
330
59D
100
AcDbXrecord
280
     1
102
RTVSPropertyOp0
 70
     1
102
RTVSPropertyOp1
 70
     1
102
RTVSPropertyOp2
 70
     1
102
RTVSPropertyOp3
 70
     1
102
RTVSPropertyOp4
 70
     1
102
RTVSPropertyOp5
 70
     1
102
RTVSPropertyOp6
 70
     1
102
RTVSPropertyOp7
 70
     1
102
RTVSPropertyOp8
 70
     1
102
RTVSPropertyOp9
 70
     1
102
RTVSPropertyOp10
 70
     1
102
RTVSPropertyOp11
 70
     1
102
RTVSPropertyOp12
 70
     1
102
RTVSPropertyOp13
 70
     1
102
RTVSPropertyOp14
 70
     1
102
RTVSPropertyOp15
 70
     1
102
RTVSPropertyOp16
 70
     1
102
RTVSPropertyOp17
 70
     1
102
RTVSPropertyOp18
 70
     1
102
RTVSPropertyOp19
 70
     1
102
RTVSPropertyOp20
 70
     1
102
RTVSPropertyOp21
 70
     1
102
RTVSPropertyOp22
 70
     1
102
RTVSPropertyOp23
 70
     1
102
RTVSPropertyOp24
 70
     1
102
RTVSPropertyOp25
 70
     1
102
RTVSPropertyOp26
 70
     1
102
RTVSPropertyOp27
 70
     1
102
RTVSPropertyOp28
 70
     1
102
RTVSPropertyOp29
 70
     1
102
RTVSPropertyOp30
 70
     1
102
RTVSPropertyOp31
 70
     1
102
RTVSPropertyOp32
 70
     1
  0
XRECORD
  5
5B2
102
{ACAD_REACTORS
330
5B1
102
}
330
5B1
100
AcDbXrecord
280
     1
102
RTVSPropertyOp0
 70
     1
102
RTVSPropertyOp1
 70
     1
102
RTVSPropertyOp2
 70
     1
102
RTVSPropertyOp3
 70
     1
102
RTVSPropertyOp4
 70
     1
102
RTVSPropertyOp5
 70
     1
102
RTVSPropertyOp6
 70
     1
102
RTVSPropertyOp7
 70
     1
102
RTVSPropertyOp8
 70
     1
102
RTVSPropertyOp9
 70
     1
102
RTVSPropertyOp10
 70
     1
102
RTVSPropertyOp11
 70
     1
102
RTVSPropertyOp12
 70
     1
102
RTVSPropertyOp13
 70
     1
102
RTVSPropertyOp14
 70
     1
102
RTVSPropertyOp15
 70
     1
102
RTVSPropertyOp16
 70
     1
102
RTVSPropertyOp17
 70
     1
102
RTVSPropertyOp18
 70
     1
102
RTVSPropertyOp19
 70
     1
102
RTVSPropertyOp20
 70
     1
102
RTVSPropertyOp21
 70
     1
102
RTVSPropertyOp22
 70
     1
102
RTVSPropertyOp23
 70
     1
102
RTVSPropertyOp24
 70
     1
102
RTVSPropertyOp25
 70
     1
102
RTVSPropertyOp26
 70
     1
102
RTVSPropertyOp27
 70
     1
102
RTVSPropertyOp28
 70
     1
102
RTVSPropertyOp29
 70
     1
102
RTVSPropertyOp30
 70
     1
102
RTVSPropertyOp31
 70
     1
102
RTVSPropertyOp32
 70
     1
  0
XRECORD
  5
5A8
102
{ACAD_REACTORS
330
5A7
102
}
330
5A7
100
AcDbXrecord
280
     1
102
RTVSPropertyOp0
 70
     1
102
RTVSPropertyOp1
 70
     1
102
RTVSPropertyOp2
 70
     1
102
RTVSPropertyOp3
 70
     1
102
RTVSPropertyOp4
 70
     1
102
RTVSPropertyOp5
 70
     1
102
RTVSPropertyOp6
 70
     1
102
RTVSPropertyOp7
 70
     1
102
RTVSPropertyOp8
 70
     1
102
RTVSPropertyOp9
 70
     1
102
RTVSPropertyOp10
 70
     1
102
RTVSPropertyOp11
 70
     1
102
RTVSPropertyOp12
 70
     1
102
RTVSPropertyOp13
 70
     1
102
RTVSPropertyOp14
 70
     1
102
RTVSPropertyOp15
 70
     1
102
RTVSPropertyOp16
 70
     1
102
RTVSPropertyOp17
 70
     1
102
RTVSPropertyOp18
 70
     1
102
RTVSPropertyOp19
 70
     1
102
RTVSPropertyOp20
 70
     1
102
RTVSPropertyOp21
 70
     1
102
RTVSPropertyOp22
 70
     1
102
RTVSPropertyOp23
 70
     1
102
RTVSPropertyOp24
 70
     1
102
RTVSPropertyOp25
 70
     1
102
RTVSPropertyOp26
 70
     1
102
RTVSPropertyOp27
 70
     1
102
RTVSPropertyOp28
 70
     1
102
RTVSPropertyOp29
 70
     1
102
RTVSPropertyOp30
 70
     1
102
RTVSPropertyOp31
 70
     1
102
RTVSPropertyOp32
 70
     1
  0
XRECORD
  5
5B0
102
{ACAD_REACTORS
330
5AF
102
}
330
5AF
100
AcDbXrecord
280
     1
102
RTVSPropertyOp0
 70
     1
102
RTVSPropertyOp1
 70
     1
102
RTVSPropertyOp2
 70
     1
102
RTVSPropertyOp3
 70
     1
102
RTVSPropertyOp4
 70
     1
102
RTVSPropertyOp5
 70
     1
102
RTVSPropertyOp6
 70
     1
102
RTVSPropertyOp7
 70
     1
102
RTVSPropertyOp8
 70
     1
102
RTVSPropertyOp9
 70
     1
102
RTVSPropertyOp10
 70
     1
102
RTVSPropertyOp11
 70
     1
102
RTVSPropertyOp12
 70
     1
102
RTVSPropertyOp13
 70
     1
102
RTVSPropertyOp14
 70
     1
102
RTVSPropertyOp15
 70
     1
102
RTVSPropertyOp16
 70
     1
102
RTVSPropertyOp17
 70
     1
102
RTVSPropertyOp18
 70
     1
102
RTVSPropertyOp19
 70
     1
102
RTVSPropertyOp20
 70
     1
102
RTVSPropertyOp21
 70
     1
102
RTVSPropertyOp22
 70
     1
102
RTVSPropertyOp23
 70
     1
102
RTVSPropertyOp24
 70
     1
102
RTVSPropertyOp25
 70
     1
102
RTVSPropertyOp26
 70
     1
102
RTVSPropertyOp27
 70
     1
102
RTVSPropertyOp28
 70
     1
102
RTVSPropertyOp29
 70
     1
102
RTVSPropertyOp30
 70
     1
102
RTVSPropertyOp31
 70
     1
102
RTVSPropertyOp32
 70
     1
  0
ENDSEC
  0
EOF
